Google Drive The.Whale.2022.1080p.AMZN.WEB-DL.DDP5.1.Atmos.H.264-FLUX

Discussion in 'Web-DL / Webrip | 1080p' started by DDLbase, Feb 23, 2023.

New website version: https://ddlbase.com (final revisions being made) New website version: https://ddlbase.com (final revisions being made)
  1. DDLbase

    DDLbase Administrator Staff Member

    [​IMG]

    Rating: 7.9/10 based on 35,857 user ratings

    Genre: Drama

    A reclusive, morbidly obese English teacher attempts to reconnect with his estranged teenage daughter.

    [​IMG]
    Code:
    General
    Unique ID                   : 13840589139078479092232103889775679928 (0xA6999BAD52DB7E153DFA91C0860D9B8)
    Complete name               : The.Whale.2022.1080p.AMZN.WEB-DL.DDP5.1.Atmos.H.264-FLUX.mkv
    Format                      : Matroska
    Format version              : Version 4
    File size                   : 8.50 GiB
    Duration                    : 1 h 56 min
    Overall bit rate            : 10.4 Mb/s
    Writing application         : mkvmerge v74.0.0 ('You Oughta Know') 64-bit
    Writing library             : libebml v1.4.4 + libmatroska v1.7.1
    
    Video
    ID                          : 1
    Format                      : AVC
    Format/Info                 : Advanced Video Codec
    Format profile              : High@L4
    Format settings             : CABAC / 4 Ref Frames
    Format settings, CABAC      : Yes
    Format settings, Reference  : 4 frames
    Codec ID                    : V_MPEG4/ISO/AVC
    Duration                    : 1 h 56 min
    Bit rate mode               : Constant
    Bit rate                    : 10 000 kb/s
    Width                       : 1 440 pixels
    Height                      : 1 080 pixels
    Display aspect ratio        : 4:3
    Frame rate mode             : Constant
    Frame rate                  : 23.976 (24000/1001) FPS
    Color space                 : YUV
    Chroma subsampling          : 4:2:0
    Bit depth                   : 8 bits
    Scan type                   : Progressive
    Bits/(Pixel*Frame)          : 0.268
    Stream size                 : 7.87 GiB (93%)
    Language                    : English
    Default                     : Yes
    Forced                      : No
    Color range                 : Limited
    Color primaries             : BT.709
    Transfer characteristics    : BT.709
    Matrix coefficients         : BT.709
    
    Audio
    ID                          : 2
    Format                      : E-AC-3 JOC
    Format/Info                 : Enhanced AC-3 with Joint Object Coding
    Commercial name             : Dolby Digital Plus with Dolby Atmos
    Codec ID                    : A_EAC3
    Duration                    : 1 h 56 min
    Bit rate mode               : Constant
    Bit rate                    : 768 kb/s
    Channel(s)                  : 6 channels
    Channel layout              : L R C LFE Ls Rs
    Sampling rate               : 48.0 kHz
    Frame rate                  : 31.250 FPS (1536 SPF)
    Compression mode            : Lossy
    Delay relative to video     : 17 ms
    Stream size                 : 642 MiB (7%)
    Language                    : English
    Service kind                : Complete Main
    Default                     : Yes
    Forced                      : No
    Complexity index            : 16
    Number of dynamic objects   : 15
    Bed channel count           : 1 channel
    Bed channel configuration   : LFE
    
    Text #1
    ID                          : 3
    Format                      : UTF-8
    Codec ID                    : S_TEXT/UTF8
    Codec ID/Info               : UTF-8 Plain Text
    Duration                    : 1 h 53 min
    Bit rate                    : 66 b/s
    Frame rate                  : 0.279 FPS
    Count of elements           : 1906
    Stream size                 : 55.4 KiB (0%)
    Title                       : CC
    Language                    : English
    Default                     : No
    Forced                      : No
    
    Text #2
    ID                          : 4
    Format                      : UTF-8
    Codec ID                    : S_TEXT/UTF8
    Codec ID/Info               : UTF-8 Plain Text
    Duration                    : 1 h 52 min
    Bit rate                    : 56 b/s
    Frame rate                  : 0.197 FPS
    Count of elements           : 1321
    Stream size                 : 46.2 KiB (0%)
    Title                       : Latin American
    Language                    : Spanish
    Default                     : No
    Forced                      : No
    
    Menu
    00:00:00.017                : en:Chapter 01
    00:13:53.058                : en:Chapter 02
    00:26:18.220                : en:Chapter 03
    00:33:19.766                : en:Chapter 04
    00:43:55.485                : en:Chapter 05
    00:54:06.680                : en:Chapter 06
    01:03:50.347                : en:Chapter 07
    01:14:10.634                : en:Chapter 08
    01:31:54.823                : en:Chapter 09
    01:39:31.154                : en:Chapter 10
    01:52:45.323                : en:Chapter 11
    Download - Mirror 1:
    Download - Mirror 2:
    Download - Mirror 3:
     
  2. Loading...


Share This Page