Google Drive The.Wonder.2022.1080p.NF.WEB-DL.DDP5.1.Atmos.H.264-SMURF

Discussion in 'Web-DL / Webrip | 1080p' started by DDLbase, Nov 16, 2022.

  1. DDLbase

    DDLbase Administrator Staff Member

    [​IMG]

    Rating: 6.9/10 based on 714 user ratings

    Genres: Drama, Mystery, Thriller

    A tale of two strangers who transform each other's lives, a psychological thriller, and a story of love pitted against evil.

    [​IMG]
    Code:
    General
    Unique ID                   : 200024653649991644281194368596614259596 (0x967B58D584834A8E784C4C6BE2F3238C)
    Complete name               : The.Wonder.2022.1080p.NF.WEB-DL.DDP5.1.Atmos.H.264-SMURF.mkv
    Format                      : Matroska
    Format version              : Version 4
    File size                   : 6.26 GiB
    Duration                    : 1 h 49 min
    Overall bit rate mode       : Variable
    Overall bit rate            : 8 164 kb/s
    Writing application         : mkvmerge v71.1.0 ('Fortitude') 64-bit
    Writing library             : libebml v1.4.4 + libmatroska v1.7.1
    
    Video
    ID                          : 1
    Format                      : AVC
    Format/Info                 : Advanced Video Codec
    Format profile              : [email protected]
    Format settings             : CABAC / 4 Ref Frames
    Format settings, CABAC      : Yes
    Format settings, Reference  : 4 frames
    Codec ID                    : V_MPEG4/ISO/AVC
    Duration                    : 1 h 49 min
    Bit rate mode               : Variable
    Bit rate                    : 7 393 kb/s
    Maximum bit rate            : 20.0 Mb/s
    Width                       : 1 920 pixels
    Height                      : 1 080 pixels
    Display aspect ratio        : 16:9
    Frame rate mode             : Constant
    Frame rate                  : 24.000 FPS
    Color space                 : YUV
    Chroma subsampling          : 4:2:0
    Bit depth                   : 8 bits
    Scan type                   : Progressive
    Bits/(Pixel*Frame)          : 0.149
    Stream size                 : 5.66 GiB (91%)
    Writing library             : x264 core 148 r2727 7d026e8
    Encoding settings           : cabac=1 / ref=4 / deblock=1:0:0 / analyse=0x3:0x111 / me=umh / subme=10 / psy=1 / psy_rd=1.00:0.00 / mixed_ref=1 / me_range=120 / chroma_me=1 / trellis=2 / 8x8dct=1 / cqm=0 / deadzone=21,11 / fast_pskip=1 / chroma_qp_offset=-2 / threads=8 / lookahead_threads=2 / sliced_threads=0 / nr=0 / decimate=1 / interlaced=0 / bluray_compat=0 / stitchable=1 / constrained_intra=0 / bframes=16 / b_pyramid=2 / b_adapt=2 / b_bias=0 / direct=3 / weightb=1 / open_gop=0 / weightp=2 / keyint=240 / keyint_min=121 / scenecut=0 / intra_refresh=0 / rc_lookahead=240 / rc=crf / mbtree=1 / crf=17.0 / qcomp=0.50 / qpmin=6 / qpmax=51 / qpstep=4 / vbv_maxrate=20000 / vbv_bufsize=25000 / crf_max=0.0 / nal_hrd=vbr / filler=0 / ip_ratio=1.40 / aq=1:0.80
    Language                    : English
    Default                     : Yes
    Forced                      : No
    
    Audio
    ID                          : 2
    Format                      : E-AC-3 JOC
    Format/Info                 : Enhanced AC-3 with Joint Object Coding
    Commercial name             : Dolby Digital Plus with Dolby Atmos
    Codec ID                    : A_EAC3
    Duration                    : 1 h 49 min
    Bit rate mode               : Constant
    Bit rate                    : 768 kb/s
    Channel(s)                  : 6 channels
    Channel layout              : L R C LFE Ls Rs
    Sampling rate               : 48.0 kHz
    Frame rate                  : 31.250 FPS (1536 SPF)
    Compression mode            : Lossy
    Stream size                 : 603 MiB (9%)
    Language                    : English
    Service kind                : Complete Main
    Default                     : Yes
    Forced                      : No
    Complexity index            : 16
    Number of dynamic objects   : 15
    Bed channel count           : 1 channel
    Bed channel configuration   : LFE
    
    Text #1
    ID                          : 3
    Format                      : UTF-8
    Codec ID                    : S_TEXT/UTF8
    Codec ID/Info               : UTF-8 Plain Text
    Duration                    : 1 h 41 min
    Bit rate                    : 36 b/s
    Frame rate                  : 0.163 FPS
    Count of elements           : 993
    Stream size                 : 27.0 KiB (0%)
    Language                    : English
    Default                     : No
    Forced                      : No
    
    Text #2
    ID                          : 4
    Format                      : UTF-8
    Codec ID                    : S_TEXT/UTF8
    Codec ID/Info               : UTF-8 Plain Text
    Duration                    : 1 h 42 min
    Bit rate                    : 47 b/s
    Frame rate                  : 0.209 FPS
    Count of elements           : 1279
    Stream size                 : 35.7 KiB (0%)
    Title                       : SDH
    Language                    : English
    Default                     : No
    Forced                      : No
    
    Text #3
    ID                          : 5
    Format                      : UTF-8
    Codec ID                    : S_TEXT/UTF8
    Codec ID/Info               : UTF-8 Plain Text
    Duration                    : 1 h 47 min
    Bit rate                    : 57 b/s
    Frame rate                  : 0.149 FPS
    Count of elements           : 960
    Stream size                 : 45.1 KiB (0%)
    Language                    : Arabic
    Default                     : No
    Forced                      : No
    
    Text #4
    ID                          : 6
    Format                      : UTF-8
    Codec ID                    : S_TEXT/UTF8
    Codec ID/Info               : UTF-8 Plain Text
    Duration                    : 1 h 47 min
    Bit rate                    : 32 b/s
    Frame rate                  : 0.150 FPS
    Count of elements           : 962
    Stream size                 : 25.3 KiB (0%)
    Language                    : Catalan
    Default                     : No
    Forced                      : No
    
    Text #5
    ID                          : 7
    Format                      : UTF-8
    Codec ID                    : S_TEXT/UTF8
    Codec ID/Info               : UTF-8 Plain Text
    Duration                    : 1 h 47 min
    Bit rate                    : 32 b/s
    Frame rate                  : 0.151 FPS
    Count of elements           : 968
    Stream size                 : 25.7 KiB (0%)
    Language                    : Czech
    Default                     : No
    Forced                      : No
    
    Text #6
    ID                          : 8
    Format                      : UTF-8
    Codec ID                    : S_TEXT/UTF8
    Codec ID/Info               : UTF-8 Plain Text
    Duration                    : 1 h 46 min
    Bit rate                    : 32 b/s
    Frame rate                  : 0.149 FPS
    Count of elements           : 955
    Stream size                 : 25.1 KiB (0%)
    Language                    : Danish
    Default                     : No
    Forced                      : No
    
    Text #7
    ID                          : 9
    Format                      : UTF-8
    Codec ID                    : S_TEXT/UTF8
    Codec ID/Info               : UTF-8 Plain Text
    Duration                    : 1 h 47 min
    Bit rate                    : 35 b/s
    Frame rate                  : 0.148 FPS
    Count of elements           : 948
    Stream size                 : 27.7 KiB (0%)
    Language                    : German
    Default                     : No
    Forced                      : No
    
    Text #8
    ID                          : 10
    Format                      : UTF-8
    Codec ID                    : S_TEXT/UTF8
    Codec ID/Info               : UTF-8 Plain Text
    Duration                    : 1 h 47 min
    Bit rate                    : 55 b/s
    Frame rate                  : 0.158 FPS
    Count of elements           : 1018
    Stream size                 : 43.5 KiB (0%)
    Language                    : Greek
    Default                     : No
    Forced                      : No
    
    Text #9
    ID                          : 11
    Format                      : UTF-8
    Codec ID                    : S_TEXT/UTF8
    Codec ID/Info               : UTF-8 Plain Text
    Duration                    : 1 h 47 min
    Bit rate                    : 32 b/s
    Frame rate                  : 0.153 FPS
    Count of elements           : 985
    Stream size                 : 25.3 KiB (0%)
    Title                       : Latin American
    Language                    : Spanish
    Default                     : No
    Forced                      : No
    
    Text #10
    ID                          : 12
    Format                      : UTF-8
    Codec ID                    : S_TEXT/UTF8
    Codec ID/Info               : UTF-8 Plain Text
    Duration                    : 1 h 47 min
    Bit rate                    : 33 b/s
    Frame rate                  : 0.153 FPS
    Count of elements           : 981
    Stream size                 : 26.2 KiB (0%)
    Language                    : Spanish
    Default                     : No
    Forced                      : No
    
    Text #11
    ID                          : 13
    Format                      : UTF-8
    Codec ID                    : S_TEXT/UTF8
    Codec ID/Info               : UTF-8 Plain Text
    Duration                    : 1 h 46 min
    Bit rate                    : 31 b/s
    Frame rate                  : 0.150 FPS
    Count of elements           : 963
    Stream size                 : 24.6 KiB (0%)
    Language                    : Basque
    Default                     : No
    Forced                      : No
    
    Text #12
    ID                          : 14
    Format                      : UTF-8
    Codec ID                    : S_TEXT/UTF8
    Codec ID/Info               : UTF-8 Plain Text
    Duration                    : 1 h 47 min
    Bit rate                    : 32 b/s
    Frame rate                  : 0.141 FPS
    Count of elements           : 908
    Stream size                 : 25.8 KiB (0%)
    Language                    : Finnish
    Default                     : No
    Forced                      : No
    
    Text #13
    ID                          : 15
    Format                      : UTF-8
    Codec ID                    : S_TEXT/UTF8
    Codec ID/Info               : UTF-8 Plain Text
    Duration                    : 1 h 47 min
    Bit rate                    : 37 b/s
    Frame rate                  : 0.151 FPS
    Count of elements           : 971
    Stream size                 : 29.2 KiB (0%)
    Language                    : fil
    Default                     : No
    Forced                      : No
    
    Text #14
    ID                          : 16
    Format                      : UTF-8
    Codec ID                    : S_TEXT/UTF8
    Codec ID/Info               : UTF-8 Plain Text
    Duration                    : 1 h 46 min
    Bit rate                    : 34 b/s
    Frame rate                  : 0.148 FPS
    Count of elements           : 947
    Stream size                 : 26.9 KiB (0%)
    Language                    : French
    Default                     : No
    Forced                      : No
    
    Text #15
    ID                          : 17
    Format                      : UTF-8
    Codec ID                    : S_TEXT/UTF8
    Codec ID/Info               : UTF-8 Plain Text
    Duration                    : 1 h 47 min
    Bit rate                    : 31 b/s
    Frame rate                  : 0.151 FPS
    Count of elements           : 968
    Stream size                 : 24.6 KiB (0%)
    Language                    : Galician
    Default                     : No
    Forced                      : No
    
    Text #16
    ID                          : 18
    Format                      : UTF-8
    Codec ID                    : S_TEXT/UTF8
    Codec ID/Info               : UTF-8 Plain Text
    Duration                    : 1 h 47 min
    Bit rate                    : 52 b/s
    Frame rate                  : 0.150 FPS
    Count of elements           : 964
    Stream size                 : 41.0 KiB (0%)
    Language                    : Hebrew
    Default                     : No
    Forced                      : No
    
    Text #17
    ID                          : 19
    Format                      : UTF-8
    Codec ID                    : S_TEXT/UTF8
    Codec ID/Info               : UTF-8 Plain Text
    Duration                    : 1 h 47 min
    Bit rate                    : 30 b/s
    Frame rate                  : 0.147 FPS
    Count of elements           : 951
    Stream size                 : 23.6 KiB (0%)
    Language                    : Croatian
    Default                     : No
    Forced                      : No
    
    Text #18
    ID                          : 20
    Format                      : UTF-8
    Codec ID                    : S_TEXT/UTF8
    Codec ID/Info               : UTF-8 Plain Text
    Duration                    : 1 h 47 min
    Bit rate                    : 34 b/s
    Frame rate                  : 0.150 FPS
    Count of elements           : 961
    Stream size                 : 26.8 KiB (0%)
    Language                    : Hungarian
    Default                     : No
    Forced                      : No
    
    Text #19
    ID                          : 21
    Format                      : UTF-8
    Codec ID                    : S_TEXT/UTF8
    Codec ID/Info               : UTF-8 Plain Text
    Duration                    : 1 h 46 min
    Bit rate                    : 31 b/s
    Frame rate                  : 0.151 FPS
    Count of elements           : 972
    Stream size                 : 24.8 KiB (0%)
    Language                    : Indonesian
    Default                     : No
    Forced                      : No
    
    Text #20
    ID                          : 22
    Format                      : UTF-8
    Codec ID                    : S_TEXT/UTF8
    Codec ID/Info               : UTF-8 Plain Text
    Duration                    : 1 h 47 min
    Bit rate                    : 33 b/s
    Frame rate                  : 0.144 FPS
    Count of elements           : 924
    Stream size                 : 26.1 KiB (0%)
    Language                    : Italian
    Default                     : No
    Forced                      : No
    
    Text #21
    ID                          : 23
    Format                      : UTF-8
    Codec ID                    : S_TEXT/UTF8
    Codec ID/Info               : UTF-8 Plain Text
    Duration                    : 1 h 47 min
    Bit rate                    : 35 b/s
    Frame rate                  : 0.154 FPS
    Count of elements           : 988
    Stream size                 : 27.5 KiB (0%)
    Language                    : Japanese
    Default                     : No
    Forced                      : No
    
    Text #22
    ID                          : 24
    Format                      : UTF-8
    Codec ID                    : S_TEXT/UTF8
    Codec ID/Info               : UTF-8 Plain Text
    Duration                    : 1 h 47 min
    Bit rate                    : 43 b/s
    Frame rate                  : 0.150 FPS
    Count of elements           : 966
    Stream size                 : 34.4 KiB (0%)
    Language                    : Korean
    Default                     : No
    Forced                      : No
    
    Text #23
    ID                          : 25
    Format                      : UTF-8
    Codec ID                    : S_TEXT/UTF8
    Codec ID/Info               : UTF-8 Plain Text
    Duration                    : 1 h 46 min
    Bit rate                    : 32 b/s
    Frame rate                  : 0.150 FPS
    Count of elements           : 961
    Stream size                 : 25.7 KiB (0%)
    Language                    : Malay
    Default                     : No
    Forced                      : No
    
    Text #24
    ID                          : 26
    Format                      : UTF-8
    Codec ID                    : S_TEXT/UTF8
    Codec ID/Info               : UTF-8 Plain Text
    Duration                    : 1 h 46 min
    Bit rate                    : 30 b/s
    Frame rate                  : 0.144 FPS
    Count of elements           : 924
    Stream size                 : 24.1 KiB (0%)
    Language                    : Norwegian Bokmal
    Default                     : No
    Forced                      : No
    
    Text #25
    ID                          : 27
    Format                      : UTF-8
    Codec ID                    : S_TEXT/UTF8
    Codec ID/Info               : UTF-8 Plain Text
    Duration                    : 1 h 46 min
    Bit rate                    : 33 b/s
    Frame rate                  : 0.150 FPS
    Count of elements           : 961
    Stream size                 : 26.1 KiB (0%)
    Language                    : Dutch
    Default                     : No
    Forced                      : No
    
    Text #26
    ID                          : 28
    Format                      : UTF-8
    Codec ID                    : S_TEXT/UTF8
    Codec ID/Info               : UTF-8 Plain Text
    Duration                    : 1 h 47 min
    Bit rate                    : 31 b/s
    Frame rate                  : 0.149 FPS
    Count of elements           : 960
    Stream size                 : 24.3 KiB (0%)
    Language                    : Polish
    Default                     : No
    Forced                      : No
    
    Text #27
    ID                          : 29
    Format                      : UTF-8
    Codec ID                    : S_TEXT/UTF8
    Codec ID/Info               : UTF-8 Plain Text
    Duration                    : 1 h 41 min
    Bit rate                    : 35 b/s
    Frame rate                  : 0.159 FPS
    Count of elements           : 967
    Stream size                 : 26.4 KiB (0%)
    Title                       : Brazilian
    Language                    : Portuguese
    Default                     : No
    Forced                      : No
    
    Text #28
    ID                          : 30
    Format                      : UTF-8
    Codec ID                    : S_TEXT/UTF8
    Codec ID/Info               : UTF-8 Plain Text
    Duration                    : 1 h 47 min
    Bit rate                    : 33 b/s
    Frame rate                  : 0.150 FPS
    Count of elements           : 964
    Stream size                 : 26.1 KiB (0%)
    Language                    : Portuguese
    Default                     : No
    Forced                      : No
    
    Text #29
    ID                          : 31
    Format                      : UTF-8
    Codec ID                    : S_TEXT/UTF8
    Codec ID/Info               : UTF-8 Plain Text
    Duration                    : 1 h 47 min
    Bit rate                    : 37 b/s
    Frame rate                  : 0.151 FPS
    Count of elements           : 971
    Stream size                 : 29.6 KiB (0%)
    Language                    : Romanian
    Default                     : No
    Forced                      : No
    
    Text #30
    ID                          : 32
    Format                      : UTF-8
    Codec ID                    : S_TEXT/UTF8
    Codec ID/Info               : UTF-8 Plain Text
    Duration                    : 1 h 47 min
    Bit rate                    : 54 b/s
    Frame rate                  : 0.151 FPS
    Count of elements           : 970
    Stream size                 : 42.5 KiB (0%)
    Language                    : Russian
    Default                     : No
    Forced                      : No
    
    Text #31
    ID                          : 33
    Format                      : UTF-8
    Codec ID                    : S_TEXT/UTF8
    Codec ID/Info               : UTF-8 Plain Text
    Duration                    : 1 h 47 min
    Bit rate                    : 32 b/s
    Frame rate                  : 0.142 FPS
    Count of elements           : 912
    Stream size                 : 25.8 KiB (0%)
    Language                    : Swedish
    Default                     : No
    Forced                      : No
    
    Text #32
    ID                          : 34
    Format                      : UTF-8
    Codec ID                    : S_TEXT/UTF8
    Codec ID/Info               : UTF-8 Plain Text
    Duration                    : 1 h 47 min
    Bit rate                    : 82 b/s
    Frame rate                  : 0.152 FPS
    Count of elements           : 974
    Stream size                 : 64.5 KiB (0%)
    Language                    : Thai
    Default                     : No
    Forced                      : No
    
    Text #33
    ID                          : 35
    Format                      : UTF-8
    Codec ID                    : S_TEXT/UTF8
    Codec ID/Info               : UTF-8 Plain Text
    Duration                    : 1 h 47 min
    Bit rate                    : 33 b/s
    Frame rate                  : 0.146 FPS
    Count of elements           : 937
    Stream size                 : 26.0 KiB (0%)
    Language                    : Turkish
    Default                     : No
    Forced                      : No
    
    Text #34
    ID                          : 36
    Format                      : UTF-8
    Codec ID                    : S_TEXT/UTF8
    Codec ID/Info               : UTF-8 Plain Text
    Duration                    : 1 h 47 min
    Bit rate                    : 51 b/s
    Frame rate                  : 0.151 FPS
    Count of elements           : 969
    Stream size                 : 40.3 KiB (0%)
    Language                    : Ukrainian
    Default                     : No
    Forced                      : No
    
    Text #35
    ID                          : 37
    Format                      : UTF-8
    Codec ID                    : S_TEXT/UTF8
    Codec ID/Info               : UTF-8 Plain Text
    Duration                    : 1 h 47 min
    Bit rate                    : 47 b/s
    Frame rate                  : 0.150 FPS
    Count of elements           : 963
    Stream size                 : 37.1 KiB (0%)
    Language                    : Vietnamese
    Default                     : No
    Forced                      : No
    
    Text #36
    ID                          : 38
    Format                      : UTF-8
    Codec ID                    : S_TEXT/UTF8
    Codec ID/Info               : UTF-8 Plain Text
    Duration                    : 1 h 47 min
    Bit rate                    : 35 b/s
    Frame rate                  : 0.150 FPS
    Count of elements           : 971
    Stream size                 : 27.9 KiB (0%)
    Title                       : Simplified
    Language                    : Chinese
    Default                     : No
    Forced                      : No
    
    Text #37
    ID                          : 39
    Format                      : UTF-8
    Codec ID                    : S_TEXT/UTF8
    Codec ID/Info               : UTF-8 Plain Text
    Duration                    : 1 h 47 min
    Bit rate                    : 34 b/s
    Frame rate                  : 0.152 FPS
    Count of elements           : 977
    Stream size                 : 26.7 KiB (0%)
    Title                       : Traditional
    Language                    : Chinese
    Default                     : No
    Forced                      : No
    
    Menu
    01:42:56.000                : en:End Credits
    Download - Mirror 1:
    Download - Mirror 2:
     
  2. Loading...


Share This Page