Google Drive The.Worlds.End.2013.1080p.BluRay.x264-SPARKS

Discussion in 'BDRip | 720p/1080p' started by DDLbase, Apr 12, 2021.

  1. DDLbase

    DDLbase Administrator Staff Member

    [​IMG]

    Rating: 7.0/10 based on 262,140 user ratings

    Genres: Action, Comedy, Sci-Fi

    Five friends who reunite in an attempt to top their epic pub crawl from twenty years earlier unwittingly become humanity’s only hope for survival.

    [​IMG]
    Code:
    General
    Unique ID                   : 217737832524538518294170463360084416857 (0xA3CEC7FAA8A052E6B3AC59F1C7A51959)
    Complete name               : The.Worlds.End.2013.1080p.BluRay.x264-SPARKS.mkv
    Format                      : Matroska
    Format version              : Version 4
    File size                   : 7.65 GiB
    Duration                    : 1 h 49 min
    Overall bit rate            : 10.0 Mb/s
    Encoded date                : UTC 2013-11-07 08:59:51
    Writing application         : mkvmerge v6.2.0 ('Promised Land') built on Apr 28 2013 12:22:01
    Writing library             : libebml v1.3.0 + libmatroska v1.4.0
    
    Video
    ID                          : 1
    Format                      : AVC
    Format/Info                 : Advanced Video Codec
    Format profile              : [email protected]
    Format settings             : CABAC / 5 Ref Frames
    Format settings, CABAC      : Yes
    Format settings, Reference  : 5 frames
    Codec ID                    : V_MPEG4/ISO/AVC
    Duration                    : 1 h 49 min
    Bit rate                    : 8 525 kb/s
    Width                       : 1 920 pixels
    Height                      : 816 pixels
    Display aspect ratio        : 2.35:1
    Frame rate mode             : Constant
    Frame rate                  : 23.976 FPS
    Color space                 : YUV
    Chroma subsampling          : 4:2:0
    Bit depth                   : 8 bits
    Scan type                   : Progressive
    Bits/(Pixel*Frame)          : 0.227
    Stream size                 : 6.34 GiB (83%)
    Title                       : X264
    Writing library             : x264 core 140 r2377 1ca7bb9
    Encoding settings           : cabac=1 / ref=5 / deblock=1:0:0 / analyse=0x3:0x133 / me=umh / subme=7 / psy=1 / psy_rd=1.00:0.00 / mixed_ref=1 / me_range=16 / chroma_me=1 / trellis=1 / 8x8dct=1 / cqm=0 / deadzone=21,11 / fast_pskip=0 / chroma_qp_offset=-2 / threads=18 / lookahead_threads=3 / sliced_threads=0 / nr=0 / decimate=1 / interlaced=0 / bluray_compat=0 / constrained_intra=0 / bframes=3 / b_pyramid=2 / b_adapt=1 / b_bias=0 / direct=1 / weightb=1 / open_gop=0 / weightp=2 / keyint=250 / keyint_min=23 / scenecut=40 / intra_refresh=0 / rc_lookahead=40 / rc=2pass / mbtree=1 / bitrate=8525 / ratetol=1.0 / qcomp=0.60 / qpmin=0 / qpmax=69 / qpstep=4 / cplxblur=20.0 / qblur=0.5 / ip_ratio=1.40 / aq=1:1.00
    Language                    : English
    Default                     : Yes
    Forced                      : No
    
    Audio
    ID                          : 2
    Format                      : DTS
    Format/Info                 : Digital Theater Systems
    Codec ID                    : A_DTS
    Duration                    : 1 h 49 min
    Bit rate mode               : Constant
    Bit rate                    : 1 509 kb/s
    Channel(s)                  : 6 channels
    Channel layout              : C L R Ls Rs LFE
    Sampling rate               : 48.0 kHz
    Frame rate                  : 93.750 FPS (512 SPF)
    Bit depth                   : 24 bits
    Compression mode            : Lossy
    Stream size                 : 1.15 GiB (15%)
    Title                       : DTS
    Language                    : English
    Default                     : Yes
    Forced                      : No
    
    Text
    ID                          : 3
    Format                      : UTF-8
    Codec ID                    : S_TEXT/UTF8
    Codec ID/Info               : UTF-8 Plain Text
    Title                       : English
    Language                    : English
    Default                     : No
    Forced                      : No
    
    Menu
    00:00:00.000                : en:00:00:00.000
    00:05:38.296                : en:00:05:38.296
    00:10:33.007                : en:00:10:33.007
    00:15:34.767                : en:00:15:34.767
    00:19:56.695                : en:00:19:56.695
    00:25:23.981                : en:00:25:23.981
    00:30:07.180                : en:00:30:07.180
    00:36:09.751                : en:00:36:09.751
    00:42:40.266                : en:00:42:40.266
    00:46:17.233                : en:00:46:17.233
    00:50:20.017                : en:00:50:20.017
    00:57:20.729                : en:00:57:20.729
    01:02:29.204                : en:01:02:29.204
    01:06:30.737                : en:01:06:30.737
    01:12:17.124                : en:01:12:17.124
    01:18:37.004                : en:01:18:37.004
    01:23:51.193                : en:01:23:51.193
    01:26:45.784                : en:01:26:45.784
    01:35:16.753                : en:01:35:16.753
    01:42:20.217                : en:01:42:20.217
    Download - Mirror 1:
    Download - Mirror 2:
     
  2. Loading...


Share This Page