Google Drive The.Wretched.2020.1080p.Bluray.X264.DTS-EVO

Discussion in 'BDRip | 720p/1080p' started by DDLbase, Aug 1, 2020.

  1. DDLbase

    DDLbase Administrator Staff Member

    [​IMG]

    Rating: 5.8/10 based on 4,939 user ratings

    Genre: Horror

    A defiant teenage boy, struggling with his parents’ imminent divorce, faces off with a thousand year-old witch, who is living beneath the skin of and posing as the woman next door.

    [​IMG]
    Code:
    General
    Unique ID                   : 68926361584379212817870064389390602985 (0x33DABBFFE38245BAE66D0EA83AFC12E9)
    Complete name               : The.Wretched.2020.1080p.Bluray.X264.DTS-EVO.mkv
    Format                      : Matroska
    Format version              : Version 4
    File size                   : 10.7 GiB
    Duration                    : 1 h 35 min
    Overall bit rate mode       : Constant
    Overall bit rate            : 16.1 Mb/s
    Movie name                  : EVO
    Encoded date                : UTC 2020-07-27 22:14:17
    Writing application         : mkvmerge v30.1.0 ('Forever And More') 64-bit
    Writing library             : libebml v1.3.6 + libmatroska v1.4.9
    
    Video
    ID                          : 1
    Format                      : AVC
    Format/Info                 : Advanced Video Codec
    Format profile              : [email protected]
    Format settings             : CABAC / 3 Ref Frames
    Format settings, CABAC      : Yes
    Format settings, Reference  : 3 frames
    Format settings, GOP        : M=1, N=24
    Codec ID                    : V_MPEG4/ISO/AVC
    Duration                    : 1 h 35 min
    Bit rate mode               : Constant
    Bit rate                    : 14.6 Mb/s
    Nominal bit rate            : 15.6 Mb/s
    Width                       : 1 920 pixels
    Height                      : 800 pixels
    Display aspect ratio        : 2.40:1
    Frame rate mode             : Constant
    Frame rate                  : 23.976 (24000/1001) FPS
    Color space                 : YUV
    Chroma subsampling          : 4:2:0
    Bit depth                   : 8 bits
    Scan type                   : Progressive
    Bits/(Pixel*Frame)          : 0.396
    Stream size                 : 9.73 GiB (91%)
    Default                     : Yes
    Forced                      : No
    Color range                 : Limited
    Color primaries             : BT.709
    Transfer characteristics    : BT.709
    Matrix coefficients         : BT.709
    
    Audio
    ID                          : 2
    Format                      : DTS
    Format/Info                 : Digital Theater Systems
    Codec ID                    : A_DTS
    Duration                    : 1 h 35 min
    Bit rate mode               : Constant
    Bit rate                    : 1 509 kb/s
    Channel(s)                  : 6 channels
    Channel layout              : C L R Ls Rs LFE
    Sampling rate               : 48.0 kHz
    Frame rate                  : 93.750 FPS (512 SPF)
    Bit depth                   : 24 bits
    Compression mode            : Lossy
    Stream size                 : 1.01 GiB (9%)
    Language                    : English
    Default                     : Yes
    Forced                      : No
    Download:
     
  2. Loading...


Share This Page