Google Drive Thor.Love.and.Thunder.2022.1080p.WEB-DL.DDP5.1.Atmos.H.264-CMRG

Discussion in 'Web-DL / Webrip | 1080p' started by DDLbase, Sep 9, 2022.

  1. DDLbase

    DDLbase Administrator Staff Member

    [​IMG]

    Rating: 6.7/10 based on 183,572 user ratings

    Genres: Action, Adventure, Comedy

    Thor enlists the help of Valkyrie, Korg and ex-girlfriend Jane Foster to fight Gorr the God Butcher, who intends to make the gods extinct.

    [​IMG]
    Code:
    General
    Unique ID                   : 333611739809933568068530199968215141137 (0xFAFB48B0F0EE23258380D737F3F30B11)
    Complete name               : Thor.Love.and.Thunder.2022.1080p.WEB-DL.DDP5.1.Atmos.H.264-CMRG.mkv
    Format                      : Matroska
    Format version              : Version 4
    File size                   : 8.77 GiB
    Duration                    : 1 h 58 min
    Overall bit rate            : 10.6 Mb/s
    Encoded date                : UTC 2022-09-07 13:01:30
    Writing application         : mkvmerge v70.0.0 ('Caught A Lite Sneeze') 64-bit
    Writing library             : libebml v1.4.2 + libmatroska v1.6.4
    
    Video
    ID                          : 1
    Format                      : AVC
    Format/Info                 : Advanced Video Codec
    Format profile              : High@L4
    Format settings             : CABAC / 5 Ref Frames
    Format settings, CABAC      : Yes
    Format settings, Reference  : 5 frames
    Codec ID                    : V_MPEG4/ISO/AVC
    Duration                    : 1 h 58 min
    Bit rate                    : 9 787 kb/s
    Width                       : 1 920 pixels
    Height                      : 804 pixels
    Display aspect ratio        : 2.40:1
    Frame rate mode             : Constant
    Frame rate                  : 23.976 FPS
    Color space                 : YUV
    Chroma subsampling          : 4:2:0
    Bit depth                   : 8 bits
    Scan type                   : Progressive
    Bits/(Pixel*Frame)          : 0.264
    Stream size                 : 8.13 GiB (93%)
    Language                    : English
    Default                     : Yes
    Forced                      : No
    Color range                 : Limited
    Color primaries             : BT.709
    Transfer characteristics    : BT.709
    Matrix coefficients         : BT.709
    
    Audio
    ID                          : 2
    Format                      : E-AC-3 JOC
    Format/Info                 : Enhanced AC-3 with Joint Object Coding
    Commercial name             : Dolby Digital Plus with Dolby Atmos
    Codec ID                    : A_EAC3
    Duration                    : 1 h 58 min
    Bit rate mode               : Constant
    Bit rate                    : 768 kb/s
    Channel(s)                  : 6 channels
    Channel layout              : L R C LFE Ls Rs
    Sampling rate               : 48.0 kHz
    Frame rate                  : 31.250 FPS (1536 SPF)
    Compression mode            : Lossy
    Stream size                 : 652 MiB (7%)
    Language                    : English
    Service kind                : Complete Main
    Default                     : Yes
    Forced                      : No
    Complexity index            : 16
    Number of dynamic objects   : 15
    Bed channel count           : 1 channel
    Bed channel configuration   : LFE
    
    Text #1
    ID                          : 3
    Format                      : UTF-8
    Codec ID                    : S_TEXT/UTF8
    Codec ID/Info               : UTF-8 Plain Text
    Duration                    : 1 h 57 min
    Bit rate                    : 55 b/s
    Frame rate                  : 0.226 FPS
    Count of elements           : 1598
    Stream size                 : 47.5 KiB (0%)
    Language                    : English
    Default                     : No
    Forced                      : No
    
    Text #2
    ID                          : 4
    Format                      : UTF-8
    Codec ID                    : S_TEXT/UTF8
    Codec ID/Info               : UTF-8 Plain Text
    Duration                    : 1 h 57 min
    Bit rate                    : 55 b/s
    Frame rate                  : 0.228 FPS
    Count of elements           : 1613
    Stream size                 : 47.6 KiB (0%)
    Title                       : Latin American
    Language                    : Spanish
    Default                     : No
    Forced                      : No
    
    Menu
    00:00:00.000                : en:Chapter 01
    00:06:45.155                : en:Chapter 02
    00:10:11.319                : en:Chapter 03
    00:14:23.780                : en:Chapter 04
    00:18:13.426                : en:Chapter 05
    00:20:59.509                : en:Chapter 06
    00:21:47.807                : en:Chapter 07
    00:27:00.995                : en:Chapter 08
    00:28:16.196                : en:Chapter 09
    00:29:52.250                : en:Chapter 10
    00:31:24.509                : en:Chapter 11
    00:35:15.115                : en:Chapter 12
    00:38:40.445                : en:Chapter 13
    00:45:37.445                : en:Chapter 14
    00:53:04.225                : en:Chapter 15
    01:06:19.396                : en:Chapter 16
    01:14:16.915                : en:Chapter 17
    01:24:35.825                : en:Chapter 18
    01:28:31.186                : en:Chapter 19
    01:30:20.003                : en:Chapter 20
    01:34:17.657                : en:Chapter 21
    01:38:12.684                : en:Chapter 22
    01:44:45.535                : en:Chapter 23
    01:48:17.622                : en:Chapter 24
    01:50:03.436                : en:Chapter 25
    01:51:14.716                : en:Chapter 26
    Download - Mirror 1:
    Download - Mirror 2:
     
  2. Loading...


Share This Page