Google Drive Three.Colors.White.1994.iNTERNAL.1080p.BluRay.x264-LiBRARiANS

Discussion in 'BDRip | 720p/1080p' started by DDLbase, Oct 5, 2020.

  1. DDLbase

    DDLbase Administrator Staff Member

    [​IMG]

    Rating: 7.6/10 based on 62,362 user ratings

    Genres: Comedy, Drama, Romance

    After his wife divorces him, a Polish immigrant plots to get even with her.

    [​IMG]
    Code:
    General
    Unique ID                   : 232433738140014349477570148807563562077 (0xAEDD1C112B2719DEBB8E3CD56B644C5D)
    Complete name               : Three.Colors.White.1994.iNTERNAL.1080p.BluRay.x264-LiBRARiANS.mkv
    Format                      : Matroska
    Format version              : Version 4
    File size                   : 10.3 GiB
    Duration                    : 1 h 31 min
    Overall bit rate mode       : Variable
    Overall bit rate            : 16.1 Mb/s
    Encoded date                : UTC 2016-03-08 21:02:33
    Writing application         : mkvmerge v8.7.0 ('All of the above') 64bit
    Writing library             : libebml v1.3.3 + libmatroska v1.4.4
    
    Video
    ID                          : 1
    Format                      : AVC
    Format/Info                 : Advanced Video Codec
    Format profile              : [email protected]
    Format settings             : CABAC / 4 Ref Frames
    Format settings, CABAC      : Yes
    Format settings, Reference  : 4 frames
    Codec ID                    : V_MPEG4/ISO/AVC
    Duration                    : 1 h 31 min
    Bit rate                    : 14.8 Mb/s
    Width                       : 1 920 pixels
    Height                      : 1 032 pixels
    Display aspect ratio        : 1.85:1
    Frame rate mode             : Constant
    Frame rate                  : 23.976 (24000/1001) FPS
    Color space                 : YUV
    Chroma subsampling          : 4:2:0
    Bit depth                   : 8 bits
    Scan type                   : Progressive
    Bits/(Pixel*Frame)          : 0.311
    Stream size                 : 9.50 GiB (92%)
    Writing library             : x264 core 148 r2665 a01e339
    Encoding settings           : cabac=1 / ref=4 / deblock=1:-3:-3 / analyse=0x3:0x113 / me=umh / subme=8 / psy=1 / psy_rd=1.00:0.25 / mixed_ref=1 / me_range=24 / chroma_me=1 / trellis=1 / 8x8dct=1 / cqm=0 / deadzone=21,11 / fast_pskip=1 / chroma_qp_offset=-4 / threads=12 / lookahead_threads=2 / sliced_threads=0 / nr=0 / decimate=1 / interlaced=0 / bluray_compat=0 / constrained_intra=0 / bframes=3 / b_pyramid=2 / b_adapt=2 / b_bias=0 / direct=3 / weightb=1 / open_gop=0 / weightp=2 / keyint=240 / keyint_min=24 / scenecut=40 / intra_refresh=0 / rc_lookahead=50 / rc=crf / mbtree=1 / crf=21.6 / qcomp=0.60 / qpmin=0 / qpmax=69 / qpstep=4 / vbv_maxrate=62500 / vbv_bufsize=78125 / crf_max=0.0 / nal_hrd=none / filler=0 / ip_ratio=1.40 / aq=1:0.50
    Default                     : Yes
    Forced                      : No
    
    Audio
    ID                          : 2
    Format                      : FLAC
    Format/Info                 : Free Lossless Audio Codec
    Codec ID                    : A_FLAC
    Duration                    : 1 h 31 min
    Bit rate mode               : Variable
    Bit rate                    : 1 298 kb/s
    Channel(s)                  : 2 channels
    Channel layout              : L R
    Sampling rate               : 48.0 kHz
    Frame rate                  : 11.719 FPS (4096 SPF)
    Bit depth                   : 24 bits
    Compression mode            : Lossless
    Stream size                 : 854 MiB (8%)
    Writing library             : libFLAC 1.2.1 (UTC 2007-09-17)
    Language                    : French
    Default                     : Yes
    Forced                      : No
    
    Text #1
    ID                          : 3
    Format                      : UTF-8
    Codec ID                    : S_TEXT/UTF8
    Codec ID/Info               : UTF-8 Plain Text
    Duration                    : 1 h 24 min
    Bit rate                    : 23 b/s
    Count of elements           : 610
    Stream size                 : 14.8 KiB (0%)
    Language                    : English
    Default                     : Yes
    Forced                      : No
    
    Text #2
    ID                          : 4
    Format                      : PGS
    Muxing mode                 : zlib
    Codec ID                    : S_HDMV/PGS
    Codec ID/Info               : Picture based subtitle format used on BDs/HD-DVDs
    Duration                    : 1 h 24 min
    Bit rate                    : 5 572 b/s
    Count of elements           : 1220
    Stream size                 : 3.36 MiB (0%)
    Language                    : English
    Default                     : No
    Forced                      : No
    
    Menu
    00:00:00.000                : en:00:00:00.000
    00:03:24.371                : en:00:03:24.371
    00:08:16.996                : en:00:08:16.996
    00:15:13.204                : en:00:15:13.204
    00:22:03.614                : en:00:22:03.614
    00:26:55.823                : en:00:26:55.823
    00:31:27.844                : en:00:31:27.844
    00:34:58.805                : en:00:34:58.805
    00:38:37.232                : en:00:38:37.232
    00:46:24.991                : en:00:46:24.991
    00:48:50.177                : en:00:48:50.177
    00:54:08.203                : en:00:54:08.203
    00:59:09.296                : en:00:59:09.296
    01:03:28.471                : en:01:03:28.471
    01:11:46.511                : en:01:11:46.511
    01:18:29.538                : en:01:18:29.538
    01:22:46.587                : en:01:22:46.587
    Download - Mirror 1:
    Download - Mirror 2:
     
  2. Loading...


Share This Page