Google Drive Three.Thousand.Years.of.Longing.2022.1080p.WEB-DL.DD5.1.H.264-EVO

Discussion in 'Web-DL / Webrip | 1080p' started by DDLbase, Sep 14, 2022.

  1. DDLbase

    DDLbase Administrator Staff Member

    [​IMG]

    Rating: 6.9/10 based on 7,716 user ratings

    Genres: Drama, Fantasy, Romance

    A lonely scholar, on a trip to Istanbul, discovers a Djinn who offers her three wishes in exchange for his freedom.

    [​IMG]
    Code:
    General
    Unique ID                   : 174838359142322496793938894760354295937 (0x8388A4A42A7891B954F2E9792D28B081)
    Complete name               : Three.Thousand.Years.of.Longing.2022.1080p.WEB-DL.DD5.1.H.264-EVO.mkv
    Format                      : Matroska
    Format version              : Version 4
    File size                   : 5.37 GiB
    Duration                    : 1 h 48 min
    Overall bit rate            : 7 074 kb/s
    Encoded date                : UTC 2022-09-13 04:15:25
    Writing application         : mkvmerge v70.0.0 ('Caught A Lite Sneeze') 64-bit
    Writing library             : libebml v1.4.2 + libmatroska v1.6.4
    
    Video
    ID                          : 1
    Format                      : AVC
    Format/Info                 : Advanced Video Codec
    Format profile              : High@L4
    Format settings             : CABAC / 5 Ref Frames
    Format settings, CABAC      : Yes
    Format settings, Reference  : 5 frames
    Codec ID                    : V_MPEG4/ISO/AVC
    Duration                    : 1 h 48 min
    Bit rate                    : 6 688 kb/s
    Width                       : 1 918 pixels
    Height                      : 800 pixels
    Display aspect ratio        : 2.40:1
    Original display aspect rat : 2.40:1
    Frame rate mode             : Constant
    Frame rate                  : 23.976 (24000/1001) FPS
    Color space                 : YUV
    Chroma subsampling          : 4:2:0
    Bit depth                   : 8 bits
    Scan type                   : Progressive
    Bits/(Pixel*Frame)          : 0.182
    Stream size                 : 5.08 GiB (95%)
    Language                    : English
    Default                     : Yes
    Forced                      : No
    Color range                 : Limited
    Color primaries             : BT.709
    Transfer characteristics    : BT.709
    Matrix coefficients         : BT.709
    
    Audio
    ID                          : 2
    Format                      : AC-3
    Format/Info                 : Audio Coding 3
    Commercial name             : Dolby Digital
    Codec ID                    : A_AC3
    Duration                    : 1 h 48 min
    Bit rate mode               : Constant
    Bit rate                    : 384 kb/s
    Channel(s)                  : 6 channels
    Channel layout              : L R C LFE Ls Rs
    Sampling rate               : 48.0 kHz
    Frame rate                  : 31.250 FPS (1536 SPF)
    Compression mode            : Lossy
    Stream size                 : 298 MiB (5%)
    Language                    : English
    Service kind                : Complete Main
    Default                     : Yes
    Forced                      : No
    
    Text
    ID                          : 3
    Format                      : UTF-8
    Codec ID                    : S_TEXT/UTF8
    Codec ID/Info               : UTF-8 Plain Text
    Duration                    : 57 min 10 s
    Bit rate                    : 4 b/s
    Frame rate                  : 0.027 FPS
    Count of elements           : 92
    Stream size                 : 1.82 KiB (0%)
    Title                       : Forced
    Language                    : English
    Default                     : Yes
    Forced                      : Yes
    Download - Mirror 1:
    Download - Mirror 2:
     
  2. Loading...


Share This Page