Google Drive Ticket.to.Paradise.2022.1080p.WEB-DL.DDP5.1.Atmos.H.264-EVO

Discussion in 'Web-DL / Webrip | 1080p' started by DDLbase, Oct 25, 2022.

  1. DDLbase

    DDLbase Administrator Staff Member

    [​IMG]

    Rating: 6.4/10 based on 9,973 user ratings

    Genres: Comedy, Romance

    A divorced couple teams up and travels to Bali to stop their daughter from making the same mistake they think they made 25 years ago.

    [​IMG]
    Code:
    General
    Unique ID                   : 196206085540164276540692393582950960306 (0x939BEAE3FC40D5068FA66E5C73FD4CB2)
    Complete name               : Ticket.to.Paradise.2022.1080p.WEB-DL.DDP5.1.Atmos.H.264-EVO.mkv
    Format                      : Matroska
    Format version              : Version 4
    File size                   : 5.30 GiB
    Duration                    : 1 h 43 min
    Overall bit rate            : 7 292 kb/s
    Encoded date                : UTC 2022-10-23 23:02:33
    Writing application         : mkvmerge v63.0.0 ('Everything') 64-bit
    Writing library             : libebml v1.4.2 + libmatroska v1.6.4
    
    Video
    ID                          : 1
    Format                      : AVC
    Format/Info                 : Advanced Video Codec
    Format profile              : High@L4
    Format settings             : CABAC / 5 Ref Frames
    Format settings, CABAC      : Yes
    Format settings, Reference  : 5 frames
    Codec ID                    : V_MPEG4/ISO/AVC
    Duration                    : 1 h 43 min
    Bit rate                    : 6 522 kb/s
    Width                       : 1 920 pixels
    Height                      : 802 pixels
    Display aspect ratio        : 2.40:1
    Frame rate mode             : Constant
    Frame rate                  : 23.976 (24000/1001) FPS
    Color space                 : YUV
    Chroma subsampling          : 4:2:0
    Bit depth                   : 8 bits
    Scan type                   : Progressive
    Bits/(Pixel*Frame)          : 0.177
    Stream size                 : 4.74 GiB (89%)
    Default                     : Yes
    Forced                      : No
    Color range                 : Limited
    Color primaries             : BT.709
    Transfer characteristics    : BT.709
    Matrix coefficients         : BT.709
    
    Audio
    ID                          : 2
    Format                      : E-AC-3 JOC
    Format/Info                 : Enhanced AC-3 with Joint Object Coding
    Commercial name             : Dolby Digital Plus with Dolby Atmos
    Codec ID                    : A_EAC3
    Duration                    : 1 h 43 min
    Bit rate mode               : Constant
    Bit rate                    : 768 kb/s
    Channel(s)                  : 6 channels
    Channel layout              : L R C LFE Ls Rs
    Sampling rate               : 48.0 kHz
    Frame rate                  : 31.250 FPS (1536 SPF)
    Compression mode            : Lossy
    Stream size                 : 571 MiB (11%)
    Language                    : English
    Service kind                : Complete Main
    Default                     : Yes
    Forced                      : No
    Complexity index            : 16
    Number of dynamic objects   : 15
    Bed channel count           : 1 channel
    Bed channel configuration   : LFE
    Download - Mirror 1:
    Download - Mirror 2:
     
  2. Loading...

    Similar Threads - Ticket Paradise 2022
    1. DDLbase
      Replies:
      0
      Views:
      623

Share This Page