Google Drive To.Leslie.2022.2160p.WEB.H265-SLOT

Discussion in 'Web-DL / Webrip | 4K' started by DDLbase, Jun 23, 2023.

New website version: https://ddlbase.com (final revisions being made) New website version: https://ddlbase.com (final revisions being made)
  1. DDLbase

    DDLbase Administrator Staff Member

    [​IMG]

    Rating: 7.1/10 based on ‎12,508 user ratings

    Genre: Drama

    Inspired by true events. A West Texas single mother wins the lottery and squanders it just as fast, leaving behind a world of heartbreak. Years later, with her charm running out and nowhere to go, she fights to rebuild her life and find redemption.

    [​IMG]
    Code:
    General
    Unique ID                   : 19586376981087931503511380362566008213 (0xEBC32F1346ED60C7A4A6C9A3C377D95)
    Complete name               : To.Leslie.2022.2160p.WEB.H265-SLOT.mkv
    Format                      : Matroska
    Format version              : Version 4
    File size                   : 17.6 GiB
    Duration                    : 1 h 59 min
    Overall bit rate            : 21.1 Mb/s
    Writing application         : mkvmerge v72.0.0 ('Minuano (Six-eight)') 64-bit
    Writing library             : libebml v1.4.4 + libmatroska v1.7.1
    
    Video
    ID                          : 1
    Format                      : HEVC
    Format/Info                 : High Efficiency Video Coding
    Format profile              : Main 10@L5@High
    Codec ID                    : V_MPEGH/ISO/HEVC
    Duration                    : 1 h 59 min
    Bit rate                    : 20.7 Mb/s
    Width                       : 3 840 pixels
    Height                      : 1 604 pixels
    Display aspect ratio        : 2.40:1
    Frame rate mode             : Constant
    Frame rate                  : 24.000 FPS
    Color space                 : YUV
    Chroma subsampling          : 4:2:0
    Bit depth                   : 10 bits
    Bits/(Pixel*Frame)          : 0.140
    Stream size                 : 17.3 GiB (98%)
    Default                     : Yes
    Forced                      : No
    Color range                 : Limited
    Color primaries             : BT.709
    Transfer characteristics    : BT.709
    Matrix coefficients         : BT.709
    
    Audio
    ID                          : 2
    Format                      : AC-3
    Format/Info                 : Audio Coding 3
    Commercial name             : Dolby Digital
    Codec ID                    : A_AC3
    Duration                    : 1 h 59 min
    Bit rate mode               : Constant
    Bit rate                    : 384 kb/s
    Channel(s)                  : 6 channels
    Channel layout              : L R C LFE Ls Rs
    Sampling rate               : 48.0 kHz
    Frame rate                  : 31.250 FPS (1536 SPF)
    Compression mode            : Lossy
    Stream size                 : 328 MiB (2%)
    Language                    : English
    Service kind                : Complete Main
    Default                     : Yes
    Forced                      : No
    
    Text
    ID                          : 3
    Format                      : UTF-8
    Codec ID                    : S_TEXT/UTF8
    Codec ID/Info               : UTF-8 Plain Text
    Duration                    : 1 h 57 min
    Bit rate                    : 56 b/s
    Frame rate                  : 0.253 FPS
    Count of elements           : 1791
    Stream size                 : 48.6 KiB (0%)
    Title                       : English CC
    Language                    : English
    Default                     : No
    Forced                      : No
    
    Menu
    00:00:00.000                : en:Chapter 1
    00:10:45.041                : en:Chapter 2
    00:24:13.791                : en:Chapter 3
    00:39:28.833                : en:Chapter 4
    00:52:08.250                : en:Chapter 5
    01:02:24.375                : en:Chapter 6
    01:15:27.041                : en:Chapter 7
    01:26:45.166                : en:Chapter 8
    01:37:25.625                : en:Chapter 9
    01:45:30.791                : en:Chapter 10
    01:55:21.125                : en:Chapter 11
    Download - Mirror 1:
    Download - Mirror 2:
    Download - Mirror 3:
     
  2. Loading...


Share This Page