Google Drive Tom.and.Jerry.2021.1080p.AMZN.WEB-DL.DDP5.1.H.264-NTb

Discussion in 'Web-DL / Webrip | 1080p' started by DDLbase, Mar 1, 2021.

  1. DDLbase

    DDLbase Administrator Staff Member

    [​IMG]

    Rating: 5.3/10 based on 6,579 user ratings

    Genres: Animation, Adventure, Comedy, Family

    Adaptation of the classic Hanna-Barbera property, which reveals how Tom and Jerry first meet and form their rivalry.

    [​IMG]
    Code:
    General
    Unique ID                   : 34812207852958966817320379544737494010 (0x1A30965CCB45EB260550F3B5414533FA)
    Complete name               : Tom.and.Jerry.2021.1080p.AMZN.WEB-DL.DDP5.1.H.264-NTb.mkv
    Format                      : Matroska
    Format version              : Version 4
    File size                   : 7.01 GiB
    Duration                    : 1 h 41 min
    Overall bit rate            : 9 928 kb/s
    Encoded date                : UTC 2021-02-28 23:44:05
    Writing application         : mkvmerge v44.0.0 ('Domino') 64-bit
    Writing library             : libebml v1.3.10 + libmatroska v1.5.2
    
    Video
    ID                          : 1
    Format                      : AVC
    Format/Info                 : Advanced Video Codec
    Format profile              : [email protected]
    Format settings             : CABAC / 4 Ref Frames
    Format settings, CABAC      : Yes
    Format settings, Reference  : 4 frames
    Codec ID                    : V_MPEG4/ISO/AVC
    Duration                    : 1 h 41 min
    Bit rate mode               : Constant
    Bit rate                    : 9 158 kb/s
    Nominal bit rate            : 10 000 kb/s
    Width                       : 1 920 pixels
    Height                      : 1 040 pixels
    Display aspect ratio        : 1.85:1
    Frame rate mode             : Constant
    Frame rate                  : 23.976 (24000/1001) FPS
    Color space                 : YUV
    Chroma subsampling          : 4:2:0
    Bit depth                   : 8 bits
    Scan type                   : Progressive
    Bits/(Pixel*Frame)          : 0.191
    Stream size                 : 6.46 GiB (92%)
    Default                     : Yes
    Forced                      : No
    Color range                 : Limited
    Color primaries             : BT.709
    Transfer characteristics    : BT.709
    Matrix coefficients         : BT.709
    
    Audio
    ID                          : 2
    Format                      : E-AC-3 JOC
    Format/Info                 : Enhanced AC-3 with Joint Object Coding
    Commercial name             : Dolby Digital Plus with Dolby Atmos
    Codec ID                    : A_EAC3
    Duration                    : 1 h 41 min
    Bit rate mode               : Constant
    Bit rate                    : 768 kb/s
    Channel(s)                  : 6 channels
    Channel layout              : L R C LFE Ls Rs
    Sampling rate               : 48.0 kHz
    Frame rate                  : 31.250 FPS (1536 SPF)
    Compression mode            : Lossy
    Stream size                 : 555 MiB (8%)
    Language                    : English
    Service kind                : Complete Main
    Default                     : Yes
    Forced                      : No
    Complexity index            : 16
    Number of dynamic objects   : 15
    Bed channel count           : 1 channel
    Bed channel configuration   : LFE
    
    Text #1
    ID                          : 3
    Format                      : UTF-8
    Codec ID                    : S_TEXT/UTF8
    Codec ID/Info               : UTF-8 Plain Text
    Duration                    : 1 h 40 min
    Bit rate                    : 79 b/s
    Count of elements           : 1916
    Stream size                 : 58.6 KiB (0%)
    Language                    : English
    Default                     : No
    Forced                      : No
    
    Text #2
    ID                          : 4
    Format                      : UTF-8
    Codec ID                    : S_TEXT/UTF8
    Codec ID/Info               : UTF-8 Plain Text
    Duration                    : 1 h 40 min
    Bit rate                    : 94 b/s
    Count of elements           : 2266
    Stream size                 : 69.4 KiB (0%)
    Title                       : SDH
    Language                    : English
    Default                     : No
    Forced                      : No
    
    Text #3
    ID                          : 5
    Format                      : UTF-8
    Codec ID                    : S_TEXT/UTF8
    Codec ID/Info               : UTF-8 Plain Text
    Duration                    : 1 h 39 min
    Bit rate                    : 48 b/s
    Count of elements           : 1330
    Stream size                 : 35.0 KiB (0%)
    Language                    : French
    Default                     : No
    Forced                      : No
    Download - Mirror 1:
    Download - Mirror 2:
     
  2. Loading...


Share This Page