Google Drive Tom.Clancys.Without.Remorse.2021.2160p.AMZN.WEB-DL.DDP5.1.HDR.HEVC-CMRG

Discussion in 'Web-DL / Webrip | 4K' started by DDLbase, Apr 30, 2021.

  1. DDLbase

    DDLbase Administrator Staff Member

    [​IMG]

    Genres: Action, Adventure, Thriller, War

    John Clark, a Navy SEAL, goes on a path to avenge his wife’s murder only to find himself inside of a larger conspiracy.

    [​IMG]
    Code:
    General
    Unique ID                   : 167325449915129864098736339086210329620 (0x7DE1B59E2F5C12D4B33AA9806D156C14)
    Complete name               : Tom.Clancys.Without.Remorse.2021.2160p.AMZN.WEB-DL.DDP5.1.HDR.HEVC-CMRG.mkv
    Format                      : Matroska
    Format version              : Version 4
    File size                   : 11.7 GiB
    Duration                    : 1 h 49 min
    Overall bit rate            : 15.3 Mb/s
    Encoded date                : UTC 2021-04-30 00:28:33
    Writing application         : mkvmerge v45.0.0 ('Heaven in Pennies') 64-bit
    Writing library             : libebml v1.3.10 + libmatroska v1.5.2
    
    Video
    ID                          : 2
    Format                      : HEVC
    Format/Info                 : High Efficiency Video Coding
    Format profile              : Main [email protected]@Main
    HDR format                  : SMPTE ST 2094 App 4, Version 1, HDR10+ Profile B compatible
    Codec ID                    : V_MPEGH/ISO/HEVC
    Duration                    : 1 h 49 min
    Bit rate                    : 14.7 Mb/s
    Width                       : 3 840 pixels
    Height                      : 1 600 pixels
    Display aspect ratio        : 2.40:1
    Frame rate mode             : Constant
    Frame rate                  : 23.976 (24000/1001) FPS
    Color space                 : YUV
    Chroma subsampling          : 4:2:0
    Bit depth                   : 10 bits
    Bits/(Pixel*Frame)          : 0.100
    Stream size                 : 11.2 GiB (96%)
    Default                     : Yes
    Forced                      : No
    Color range                 : Limited
    Color primaries             : BT.2020
    Transfer characteristics    : PQ
    Matrix coefficients         : BT.2020 non-constant
    Mastering display color pri : Display P3
    Mastering display luminance : min: 0.0001 cd/m2, max: 1000 cd/m2
    Maximum Content Light Level : 919 cd/m2
    Maximum Frame-Average Light : 492 cd/m2
    
    Audio
    ID                          : 1
    Format                      : E-AC-3
    Format/Info                 : Enhanced AC-3
    Commercial name             : Dolby Digital Plus
    Codec ID                    : A_EAC3
    Duration                    : 1 h 49 min
    Bit rate mode               : Constant
    Bit rate                    : 640 kb/s
    Channel(s)                  : 6 channels
    Channel layout              : L R C LFE Ls Rs
    Sampling rate               : 48.0 kHz
    Frame rate                  : 31.250 FPS (1536 SPF)
    Compression mode            : Lossy
    Stream size                 : 500 MiB (4%)
    Service kind                : Complete Main
    Default                     : Yes
    Forced                      : No
    
    Text #1
    ID                          : 3
    Format                      : UTF-8
    Codec ID                    : S_TEXT/UTF8
    Codec ID/Info               : UTF-8 Plain Text
    Duration                    : 1 h 47 min
    Bit rate                    : 57 b/s
    Count of elements           : 903
    Stream size                 : 45.5 KiB (0%)
    Title                       : Hebrew
    Language                    : Hebrew
    Default                     : No
    Forced                      : No
    
    Text #2
    ID                          : 4
    Format                      : UTF-8
    Codec ID                    : S_TEXT/UTF8
    Codec ID/Info               : UTF-8 Plain Text
    Duration                    : 44 min 31 s
    Bit rate                    : 0 b/s
    Count of elements           : 9
    Stream size                 : 332 Bytes (0%)
    Title                       : English [Forced]
    Language                    : English
    Default                     : No
    Forced                      : Yes
    
    Text #3
    ID                          : 5
    Format                      : UTF-8
    Codec ID                    : S_TEXT/UTF8
    Codec ID/Info               : UTF-8 Plain Text
    Duration                    : 1 h 47 min
    Bit rate                    : 35 b/s
    Count of elements           : 779
    Stream size                 : 27.5 KiB (0%)
    Title                       : German
    Language                    : German
    Default                     : No
    Forced                      : No
    
    Text #4
    ID                          : 6
    Format                      : UTF-8
    Codec ID                    : S_TEXT/UTF8
    Codec ID/Info               : UTF-8 Plain Text
    Duration                    : 1 h 47 min
    Bit rate                    : 31 b/s
    Count of elements           : 902
    Stream size                 : 25.1 KiB (0%)
    Title                       : Turkish
    Language                    : Turkish
    Default                     : No
    Forced                      : No
    
    Text #5
    ID                          : 7
    Format                      : UTF-8
    Codec ID                    : S_TEXT/UTF8
    Codec ID/Info               : UTF-8 Plain Text
    Duration                    : 1 h 48 min
    Bit rate                    : 47 b/s
    Count of elements           : 1436
    Stream size                 : 38.1 KiB (0%)
    Title                       : English [SDH]
    Language                    : English
    Default                     : No
    Forced                      : No
    
    Text #6
    ID                          : 8
    Format                      : UTF-8
    Codec ID                    : S_TEXT/UTF8
    Codec ID/Info               : UTF-8 Plain Text
    Duration                    : 1 h 47 min
    Bit rate                    : 32 b/s
    Count of elements           : 896
    Stream size                 : 25.2 KiB (0%)
    Title                       : Finnish
    Language                    : Finnish
    Default                     : No
    Forced                      : No
    
    Text #7
    ID                          : 9
    Format                      : UTF-8
    Codec ID                    : S_TEXT/UTF8
    Codec ID/Info               : UTF-8 Plain Text
    Duration                    : 1 h 47 min
    Bit rate                    : 34 b/s
    Count of elements           : 900
    Stream size                 : 27.2 KiB (0%)
    Title                       : Romanian
    Language                    : Romanian
    Default                     : No
    Forced                      : No
    
    Text #8
    ID                          : 10
    Format                      : UTF-8
    Codec ID                    : S_TEXT/UTF8
    Codec ID/Info               : UTF-8 Plain Text
    Duration                    : 1 h 47 min
    Bit rate                    : 27 b/s
    Count of elements           : 904
    Stream size                 : 21.6 KiB (0%)
    Title                       : Chinese (Traditional)
    Language                    : Chinese
    Default                     : No
    Forced                      : No
    
    Text #9
    ID                          : 11
    Format                      : UTF-8
    Codec ID                    : S_TEXT/UTF8
    Codec ID/Info               : UTF-8 Plain Text
    Duration                    : 1 h 47 min
    Bit rate                    : 84 b/s
    Count of elements           : 904
    Stream size                 : 66.4 KiB (0%)
    Title                       : Telugu
    Language                    : Telugu
    Default                     : No
    Forced                      : No
    
    Text #10
    ID                          : 12
    Format                      : UTF-8
    Codec ID                    : S_TEXT/UTF8
    Codec ID/Info               : UTF-8 Plain Text
    Duration                    : 1 h 47 min
    Bit rate                    : 28 b/s
    Count of elements           : 899
    Stream size                 : 22.5 KiB (0%)
    Title                       : Polish
    Language                    : Polish
    Default                     : No
    Forced                      : No
    
    Text #11
    ID                          : 13
    Format                      : UTF-8
    Codec ID                    : S_TEXT/UTF8
    Codec ID/Info               : UTF-8 Plain Text
    Duration                    : 1 h 47 min
    Bit rate                    : 31 b/s
    Count of elements           : 901
    Stream size                 : 25.1 KiB (0%)
    Title                       : Italian
    Language                    : Italian
    Default                     : No
    Forced                      : No
    
    Text #12
    ID                          : 14
    Format                      : UTF-8
    Codec ID                    : S_TEXT/UTF8
    Codec ID/Info               : UTF-8 Plain Text
    Duration                    : 1 h 47 min
    Bit rate                    : 33 b/s
    Count of elements           : 901
    Stream size                 : 26.0 KiB (0%)
    Title                       : Hungarian
    Language                    : Hungarian
    Default                     : No
    Forced                      : No
    
    Text #13
    ID                          : 15
    Format                      : UTF-8
    Codec ID                    : S_TEXT/UTF8
    Codec ID/Info               : UTF-8 Plain Text
    Duration                    : 1 h 47 min
    Bit rate                    : 83 b/s
    Count of elements           : 904
    Stream size                 : 65.3 KiB (0%)
    Title                       : Tamil
    Language                    : Tamil
    Default                     : No
    Forced                      : No
    
    Text #14
    ID                          : 16
    Format                      : UTF-8
    Codec ID                    : S_TEXT/UTF8
    Codec ID/Info               : UTF-8 Plain Text
    Duration                    : 1 h 47 min
    Bit rate                    : 30 b/s
    Count of elements           : 898
    Stream size                 : 24.2 KiB (0%)
    Title                       : French
    Language                    : French
    Default                     : No
    Forced                      : No
    
    Text #15
    ID                          : 17
    Format                      : UTF-8
    Codec ID                    : S_TEXT/UTF8
    Codec ID/Info               : UTF-8 Plain Text
    Duration                    : 1 h 47 min
    Bit rate                    : 31 b/s
    Count of elements           : 902
    Stream size                 : 24.7 KiB (0%)
    Title                       : Portuguese
    Language                    : Portuguese
    Default                     : No
    Forced                      : No
    
    Text #16
    ID                          : 18
    Format                      : UTF-8
    Codec ID                    : S_TEXT/UTF8
    Codec ID/Info               : UTF-8 Plain Text
    Duration                    : 1 h 47 min
    Bit rate                    : 29 b/s
    Count of elements           : 871
    Stream size                 : 23.1 KiB (0%)
    Title                       : Filipino
    Language                    : fil
    Default                     : No
    Forced                      : No
    
    Text #17
    ID                          : 19
    Format                      : UTF-8
    Codec ID                    : S_TEXT/UTF8
    Codec ID/Info               : UTF-8 Plain Text
    Duration                    : 1 h 47 min
    Bit rate                    : 52 b/s
    Count of elements           : 896
    Stream size                 : 41.6 KiB (0%)
    Title                       : Russian
    Language                    : Russian
    Default                     : No
    Forced                      : No
    
    Text #18
    ID                          : 20
    Format                      : UTF-8
    Codec ID                    : S_TEXT/UTF8
    Codec ID/Info               : UTF-8 Plain Text
    Duration                    : 1 h 42 min
    Bit rate                    : 40 b/s
    Count of elements           : 1084
    Stream size                 : 30.3 KiB (0%)
    Title                       : English
    Language                    : English
    Default                     : No
    Forced                      : No
    
    Text #19
    ID                          : 21
    Format                      : UTF-8
    Codec ID                    : S_TEXT/UTF8
    Codec ID/Info               : UTF-8 Plain Text
    Duration                    : 1 h 47 min
    Bit rate                    : 29 b/s
    Count of elements           : 848
    Stream size                 : 23.0 KiB (0%)
    Title                       : Japanese
    Language                    : Japanese
    Default                     : No
    Forced                      : No
    
    Text #20
    ID                          : 22
    Format                      : UTF-8
    Codec ID                    : S_TEXT/UTF8
    Codec ID/Info               : UTF-8 Plain Text
    Duration                    : 1 h 47 min
    Bit rate                    : 61 b/s
    Count of elements           : 904
    Stream size                 : 48.7 KiB (0%)
    Title                       : Arabic
    Language                    : Arabic
    Default                     : No
    Forced                      : No
    
    Text #21
    ID                          : 23
    Format                      : UTF-8
    Codec ID                    : S_TEXT/UTF8
    Codec ID/Info               : UTF-8 Plain Text
    Duration                    : 1 h 47 min
    Bit rate                    : 32 b/s
    Count of elements           : 899
    Stream size                 : 25.8 KiB (0%)
    Title                       : Swedish
    Language                    : Swedish
    Default                     : No
    Forced                      : No
    
    Text #22
    ID                          : 24
    Format                      : UTF-8
    Codec ID                    : S_TEXT/UTF8
    Codec ID/Info               : UTF-8 Plain Text
    Duration                    : 1 h 47 min
    Bit rate                    : 30 b/s
    Count of elements           : 899
    Stream size                 : 24.2 KiB (0%)
    Title                       : Dutch
    Language                    : Dutch
    Default                     : No
    Forced                      : No
    
    Text #23
    ID                          : 25
    Format                      : UTF-8
    Codec ID                    : S_TEXT/UTF8
    Codec ID/Info               : UTF-8 Plain Text
    Duration                    : 1 h 47 min
    Bit rate                    : 33 b/s
    Count of elements           : 904
    Stream size                 : 26.3 KiB (0%)
    Title                       : Chinese (Simplified)
    Language                    : Chinese
    Default                     : No
    Forced                      : No
    
    Text #24
    ID                          : 26
    Format                      : UTF-8
    Codec ID                    : S_TEXT/UTF8
    Codec ID/Info               : UTF-8 Plain Text
    Duration                    : 1 h 47 min
    Bit rate                    : 31 b/s
    Count of elements           : 904
    Stream size                 : 25.0 KiB (0%)
    Title                       : Castilian
    Language                    : Spanish
    Default                     : No
    Forced                      : No
    
    Text #25
    ID                          : 27
    Format                      : UTF-8
    Codec ID                    : S_TEXT/UTF8
    Codec ID/Info               : UTF-8 Plain Text
    Duration                    : 1 h 47 min
    Bit rate                    : 33 b/s
    Count of elements           : 904
    Stream size                 : 26.2 KiB (0%)
    Title                       : Korean
    Language                    : Korean
    Default                     : No
    Forced                      : No
    
    Text #26
    ID                          : 28
    Format                      : UTF-8
    Codec ID                    : S_TEXT/UTF8
    Codec ID/Info               : UTF-8 Plain Text
    Duration                    : 1 h 47 min
    Bit rate                    : 30 b/s
    Count of elements           : 900
    Stream size                 : 23.7 KiB (0%)
    Title                       : Danish
    Language                    : Danish
    Default                     : No
    Forced                      : No
    
    Text #27
    ID                          : 29
    Format                      : UTF-8
    Codec ID                    : S_TEXT/UTF8
    Codec ID/Info               : UTF-8 Plain Text
    Duration                    : 1 h 47 min
    Bit rate                    : 80 b/s
    Count of elements           : 904
    Stream size                 : 63.7 KiB (0%)
    Title                       : Hindi
    Language                    : Hindi
    Default                     : No
    Forced                      : No
    
    Text #28
    ID                          : 30
    Format                      : UTF-8
    Codec ID                    : S_TEXT/UTF8
    Codec ID/Info               : UTF-8 Plain Text
    Duration                    : 1 h 47 min
    Bit rate                    : 31 b/s
    Count of elements           : 901
    Stream size                 : 24.6 KiB (0%)
    Title                       : Malay
    Language                    : Malay
    Default                     : No
    Forced                      : No
    
    Text #29
    ID                          : 31
    Format                      : UTF-8
    Codec ID                    : S_TEXT/UTF8
    Codec ID/Info               : UTF-8 Plain Text
    Duration                    : 1 h 47 min
    Bit rate                    : 32 b/s
    Count of elements           : 904
    Stream size                 : 25.4 KiB (0%)
    Title                       : Spanish
    Language                    : Spanish
    Default                     : No
    Forced                      : No
    
    Text #30
    ID                          : 32
    Format                      : UTF-8
    Codec ID                    : S_TEXT/UTF8
    Codec ID/Info               : UTF-8 Plain Text
    Duration                    : 1 h 47 min
    Bit rate                    : 30 b/s
    Count of elements           : 902
    Stream size                 : 24.0 KiB (0%)
    Title                       : Norwegian (Bokmål)
    Language                    : Norwegian Bokmal
    Default                     : No
    Forced                      : No
    
    Text #31
    ID                          : 33
    Format                      : UTF-8
    Codec ID                    : S_TEXT/UTF8
    Codec ID/Info               : UTF-8 Plain Text
    Duration                    : 1 h 47 min
    Bit rate                    : 30 b/s
    Count of elements           : 902
    Stream size                 : 24.3 KiB (0%)
    Title                       : Indonesian
    Language                    : Indonesian
    Default                     : No
    Forced                      : No
    
    Text #32
    ID                          : 34
    Format                      : UTF-8
    Codec ID                    : S_TEXT/UTF8
    Codec ID/Info               : UTF-8 Plain Text
    Duration                    : 1 h 47 min
    Bit rate                    : 82 b/s
    Count of elements           : 904
    Stream size                 : 65.2 KiB (0%)
    Title                       : Thai
    Language                    : Thai
    Default                     : No
    Forced                      : No
    
    Text #33
    ID                          : 35
    Format                      : UTF-8
    Codec ID                    : S_TEXT/UTF8
    Codec ID/Info               : UTF-8 Plain Text
    Duration                    : 1 h 47 min
    Bit rate                    : 31 b/s
    Count of elements           : 904
    Stream size                 : 24.8 KiB (0%)
    Title                       : Brazilian Portuguese
    Language                    : Portuguese
    Default                     : No
    Forced                      : No
    
    Text #34
    ID                          : 36
    Format                      : UTF-8
    Codec ID                    : S_TEXT/UTF8
    Codec ID/Info               : UTF-8 Plain Text
    Duration                    : 1 h 47 min
    Bit rate                    : 31 b/s
    Count of elements           : 902
    Stream size                 : 24.9 KiB (0%)
    Title                       : Czech
    Language                    : Czech
    Default                     : No
    Forced                      : No
    Download - Mirror 1:
    Download - Mirror 2:
     
  2. Loading...


Share This Page