Google Drive Top.Gun.1986.REMASTERED.1080p.BluRay.X264-AMIABLE

Discussion in 'BDRip | 720p/1080p' started by DDLbase, Aug 13, 2020.

  1. DDLbase

    DDLbase Administrator Staff Member

    [​IMG]

    Rating: 6.9/10 based on 286,006 user ratings

    Genres: Action, Drama

    As students at the United States Navy’s elite fighter weapons school compete to be best in the class, one daring young pilot learns a few things from a civilian instructor that are not taught in the classroom.

    [​IMG]
    Code:
    General
    Unique ID                   : 138718200056815098537037548980607007126 (0x685C274DE111C06A117E94B6FBC63996)
    Complete name               : Top.Gun.1986.REMASTERED.1080p.BluRay.X264-AMIABLE.mkv
    Format                      : Matroska
    Format version              : Version 4
    File size                   : 17.2 GiB
    Duration                    : 1 h 49 min
    Overall bit rate mode       : Variable
    Overall bit rate            : 22.5 Mb/s
    Writing application         : mkvmerge v47.0.0 ('Black Flag') 64-bit
    Writing library             : libebml v1.3.10 + libmatroska v1.5.2
    
    Video
    ID                          : 1
    Format                      : AVC
    Format/Info                 : Advanced Video Codec
    Format profile              : [email protected]
    Format settings             : CABAC / 5 Ref Frames
    Format settings, CABAC      : Yes
    Format settings, Reference  : 5 frames
    Codec ID                    : V_MPEG4/ISO/AVC
    Duration                    : 1 h 49 min
    Bit rate                    : 16.9 Mb/s
    Width                       : 1 920 pixels
    Height                      : 800 pixels
    Display aspect ratio        : 2.40:1
    Frame rate mode             : Constant
    Frame rate                  : 23.976 (24000/1001) FPS
    Color space                 : YUV
    Chroma subsampling          : 4:2:0
    Bit depth                   : 8 bits
    Scan type                   : Progressive
    Bits/(Pixel*Frame)          : 0.459
    Stream size                 : 12.9 GiB (75%)
    Writing library             : x264 core 161 r3018 db0d417
    Encoding settings           : cabac=1 / ref=5 / deblock=1:-3:-3 / analyse=0x3:0x133 / me=umh / subme=10 / psy=1 / psy_rd=1.10:0.00 / mixed_ref=1 / me_range=48 / chroma_me=1 / trellis=2 / 8x8dct=1 / cqm=0 / deadzone=21,11 / fast_pskip=0 / chroma_qp_offset=-2 / threads=25 / lookahead_threads=6 / sliced_threads=0 / nr=0 / decimate=0 / interlaced=0 / bluray_compat=0 / constrained_intra=0 / bframes=10 / b_pyramid=2 / b_adapt=2 / b_bias=0 / direct=3 / weightb=1 / open_gop=0 / weightp=2 / keyint=250 / keyint_min=23 / scenecut=40 / intra_refresh=0 / rc=crf / mbtree=0 / crf=19.2 / qcomp=0.60 / qpmin=0 / qpmax=69 / qpstep=4 / ip_ratio=1.30 / pb_ratio=1.20 / aq=3:0.70
    Default                     : Yes
    Forced                      : No
    Color range                 : Limited
    Matrix coefficients         : BT.709
    
    Audio #1
    ID                          : 2
    Format                      : MLP FBA 16-ch
    Format/Info                 : Meridian Lossless Packing FBA with 16-channel presentation
    Commercial name             : Dolby TrueHD with Dolby Atmos
    Codec ID                    : A_TRUEHD
    Duration                    : 1 h 49 min
    Bit rate mode               : Variable
    Bit rate                    : 4 476 kb/s
    Maximum bit rate            : 8 049 kb/s
    Channel(s)                  : 8 channels
    Channel layout              : L R C LFE Ls Rs Lb Rb
    Sampling rate               : 48.0 kHz
    Frame rate                  : 1 200.000 FPS (40 SPF)
    Compression mode            : Lossless
    Stream size                 : 3.42 GiB (20%)
    Title                       : Atmos 7.1
    Language                    : English
    Default                     : Yes
    Forced                      : No
    Number of dynamic objects   : 11
    Bed channel count           : 1 channel
    Bed channel configuration   : LFE
    
    Audio #2
    ID                          : 3
    Format                      : AC-3
    Format/Info                 : Audio Coding 3
    Commercial name             : Dolby Digital
    Codec ID                    : A_AC3
    Duration                    : 1 h 49 min
    Bit rate mode               : Constant
    Bit rate                    : 640 kb/s
    Channel(s)                  : 6 channels
    Channel layout              : L R C LFE Ls Rs
    Sampling rate               : 48.0 kHz
    Frame rate                  : 31.250 FPS (1536 SPF)
    Compression mode            : Lossy
    Stream size                 : 501 MiB (3%)
    Service kind                : Complete Main
    Default                     : No
    Forced                      : No
    
    Audio #3
    ID                          : 23
    Format                      : AAC LC
    Format/Info                 : Advanced Audio Codec Low Complexity
    Codec ID                    : A_AAC-2
    Duration                    : 1 h 49 min
    Bit rate                    : 118 kb/s
    Channel(s)                  : 2 channels
    Channel layout              : L R
    Sampling rate               : 48.0 kHz
    Frame rate                  : 46.875 FPS (1024 SPF)
    Compression mode            : Lossy
    Delay relative to video     : 9 ms
    Stream size                 : 92.3 MiB (1%)
    Title                       : Commentary with Producer Jerry Bruckheimer, Director Tony Scott, Co-Screenwriter Jack Epps, Jr., and Naval Experts
    Language                    : English
    Default                     : No
    Forced                      : No
    
    Text #1
    ID                          : 4
    Format                      : UTF-8
    Codec ID                    : S_TEXT/UTF8
    Codec ID/Info               : UTF-8 Plain Text
    Duration                    : 1 h 40 min
    Bit rate                    : 60 b/s
    Count of elements           : 1395
    Stream size                 : 44.6 KiB (0%)
    Title                       : Stripped SRT
    Language                    : English
    Default                     : No
    Forced                      : No
    
    Text #2
    ID                          : 5
    Format                      : UTF-8
    Codec ID                    : S_TEXT/UTF8
    Codec ID/Info               : UTF-8 Plain Text
    Duration                    : 1 h 40 min
    Bit rate                    : 60 b/s
    Count of elements           : 1391
    Stream size                 : 44.5 KiB (0%)
    Title                       : Full SRT
    Language                    : English
    Default                     : No
    Forced                      : No
    
    Text #3
    ID                          : 6
    Format                      : UTF-8
    Codec ID                    : S_TEXT/UTF8
    Codec ID/Info               : UTF-8 Plain Text
    Duration                    : 1 h 42 min
    Bit rate                    : 62 b/s
    Count of elements           : 1499
    Stream size                 : 47.0 KiB (0%)
    Title                       : SDH SRT
    Language                    : English
    Default                     : No
    Forced                      : No
    
    Text #4
    ID                          : 7
    Format                      : PGS
    Muxing mode                 : zlib
    Codec ID                    : S_HDMV/PGS
    Codec ID/Info               : Picture based subtitle format used on BDs/HD-DVDs
    Duration                    : 1 h 40 min
    Bit rate                    : 38.7 kb/s
    Count of elements           : 2782
    Stream size                 : 27.8 MiB (0%)
    Title                       : Full
    Language                    : English
    Default                     : No
    Forced                      : No
    
    Text #5
    ID                          : 8
    Format                      : PGS
    Muxing mode                 : zlib
    Codec ID                    : S_HDMV/PGS
    Codec ID/Info               : Picture based subtitle format used on BDs/HD-DVDs
    Duration                    : 1 h 49 min
    Bit rate                    : 80.2 kb/s
    Count of elements           : 4215
    Stream size                 : 62.6 MiB (0%)
    Title                       : Commentary with Producer Jerry Bruckheimer, Director Tony Scott, Co-Screenwriter Jack Epps, Jr., and Naval Experts
    Language                    : English
    Default                     : No
    Forced                      : No
    
    Text #6
    ID                          : 9
    Format                      : PGS
    Muxing mode                 : zlib
    Codec ID                    : S_HDMV/PGS
    Codec ID/Info               : Picture based subtitle format used on BDs/HD-DVDs
    Duration                    : 1 h 42 min
    Bit rate                    : 40.5 kb/s
    Count of elements           : 2998
    Stream size                 : 29.8 MiB (0%)
    Title                       : English SDH
    Language                    : English
    Default                     : No
    Forced                      : No
    
    Text #7
    ID                          : 10
    Format                      : PGS
    Muxing mode                 : zlib
    Codec ID                    : S_HDMV/PGS
    Codec ID/Info               : Picture based subtitle format used on BDs/HD-DVDs
    Duration                    : 1 h 48 min
    Bit rate                    : 27.3 kb/s
    Count of elements           : 2490
    Stream size                 : 21.2 MiB (0%)
    Title                       : French
    Language                    : French
    Default                     : No
    Forced                      : No
    
    Text #8
    ID                          : 11
    Format                      : PGS
    Muxing mode                 : zlib
    Codec ID                    : S_HDMV/PGS
    Codec ID/Info               : Picture based subtitle format used on BDs/HD-DVDs
    Duration                    : 1 h 49 min
    Bit rate                    : 68.1 kb/s
    Count of elements           : 4217
    Stream size                 : 53.2 MiB (0%)
    Title                       : Commentary with Producer Jerry Bruckheimer, Director Tony Scott, Co-Screenwriter Jack Epps, Jr., and Naval Experts
    Language                    : French
    Default                     : No
    Forced                      : No
    
    Text #9
    ID                          : 12
    Format                      : PGS
    Muxing mode                 : zlib
    Codec ID                    : S_HDMV/PGS
    Codec ID/Info               : Picture based subtitle format used on BDs/HD-DVDs
    Duration                    : 1 h 43 min
    Bit rate                    : 34.7 kb/s
    Count of elements           : 2746
    Stream size                 : 25.8 MiB (0%)
    Title                       : Spanish
    Language                    : Spanish
    Default                     : No
    Forced                      : No
    
    Text #10
    ID                          : 13
    Format                      : PGS
    Muxing mode                 : zlib
    Codec ID                    : S_HDMV/PGS
    Codec ID/Info               : Picture based subtitle format used on BDs/HD-DVDs
    Duration                    : 1 h 49 min
    Bit rate                    : 72.3 kb/s
    Count of elements           : 4121
    Stream size                 : 56.5 MiB (0%)
    Title                       : Commentary with Producer Jerry Bruckheimer, Director Tony Scott, Co-Screenwriter Jack Epps, Jr., and Naval Experts
    Language                    : Spanish
    Default                     : No
    Forced                      : No
    
    Text #11
    ID                          : 14
    Format                      : PGS
    Muxing mode                 : zlib
    Codec ID                    : S_HDMV/PGS
    Codec ID/Info               : Picture based subtitle format used on BDs/HD-DVDs
    Duration                    : 1 h 48 min
    Bit rate                    : 31.0 kb/s
    Count of elements           : 2418
    Stream size                 : 24.1 MiB (0%)
    Title                       : Portuguese
    Language                    : Portuguese
    Default                     : No
    Forced                      : No
    
    Text #12
    ID                          : 15
    Format                      : PGS
    Muxing mode                 : zlib
    Codec ID                    : S_HDMV/PGS
    Codec ID/Info               : Picture based subtitle format used on BDs/HD-DVDs
    Duration                    : 1 h 49 min
    Bit rate                    : 69.6 kb/s
    Count of elements           : 3467
    Stream size                 : 54.3 MiB (0%)
    Title                       : Commentary with Producer Jerry Bruckheimer, Director Tony Scott, Co-Screenwriter Jack Epps, Jr., and Naval Experts
    Language                    : Portuguese
    Default                     : No
    Forced                      : No
    
    Text #13
    ID                          : 16
    Format                      : PGS
    Muxing mode                 : zlib
    Codec ID                    : S_HDMV/PGS
    Codec ID/Info               : Picture based subtitle format used on BDs/HD-DVDs
    Duration                    : 1 h 48 min
    Bit rate                    : 26.1 kb/s
    Count of elements           : 2178
    Stream size                 : 20.3 MiB (0%)
    Title                       : Dutch
    Language                    : Dutch
    Default                     : No
    Forced                      : No
    
    Text #14
    ID                          : 17
    Format                      : PGS
    Muxing mode                 : zlib
    Codec ID                    : S_HDMV/PGS
    Codec ID/Info               : Picture based subtitle format used on BDs/HD-DVDs
    Duration                    : 1 h 48 min
    Bit rate                    : 23.8 kb/s
    Count of elements           : 2404
    Stream size                 : 18.5 MiB (0%)
    Title                       : Swedish
    Language                    : Swedish
    Default                     : No
    Forced                      : No
    
    Text #15
    ID                          : 18
    Format                      : PGS
    Muxing mode                 : zlib
    Codec ID                    : S_HDMV/PGS
    Codec ID/Info               : Picture based subtitle format used on BDs/HD-DVDs
    Duration                    : 1 h 48 min
    Bit rate                    : 27.8 kb/s
    Count of elements           : 2508
    Stream size                 : 21.6 MiB (0%)
    Title                       : Norwegian
    Language                    : Norwegian
    Default                     : No
    Forced                      : No
    
    Text #16
    ID                          : 19
    Format                      : PGS
    Muxing mode                 : zlib
    Codec ID                    : S_HDMV/PGS
    Codec ID/Info               : Picture based subtitle format used on BDs/HD-DVDs
    Duration                    : 1 h 48 min
    Bit rate                    : 24.0 kb/s
    Count of elements           : 2426
    Stream size                 : 18.7 MiB (0%)
    Title                       : Danish
    Language                    : Danish
    Default                     : No
    Forced                      : No
    
    Text #17
    ID                          : 20
    Format                      : PGS
    Muxing mode                 : zlib
    Codec ID                    : S_HDMV/PGS
    Codec ID/Info               : Picture based subtitle format used on BDs/HD-DVDs
    Duration                    : 1 h 48 min
    Bit rate                    : 26.8 kb/s
    Count of elements           : 2230
    Stream size                 : 20.8 MiB (0%)
    Title                       : Finnish
    Language                    : Finnish
    Default                     : No
    Forced                      : No
    
    Text #18
    ID                          : 21
    Format                      : PGS
    Muxing mode                 : zlib
    Codec ID                    : S_HDMV/PGS
    Codec ID/Info               : Picture based subtitle format used on BDs/HD-DVDs
    Duration                    : 1 h 43 min
    Bit rate                    : 18.9 kb/s
    Count of elements           : 1898
    Stream size                 : 14.0 MiB (0%)
    Title                       : Japanese
    Language                    : Japanese
    Default                     : No
    Forced                      : No
    
    Text #19
    ID                          : 22
    Format                      : PGS
    Muxing mode                 : zlib
    Codec ID                    : S_HDMV/PGS
    Codec ID/Info               : Picture based subtitle format used on BDs/HD-DVDs
    Duration                    : 1 h 49 min
    Bit rate                    : 47.4 kb/s
    Count of elements           : 2886
    Stream size                 : 37.0 MiB (0%)
    Title                       : Commentary with Producer Jerry Bruckheimer, Director Tony Scott, Co-Screenwriter Jack Epps, Jr., and Naval Experts
    Language                    : Japanese
    Default                     : No
    Forced                      : No
    
    Menu
    00:00:00.000                : en:Chapter 01
    00:02:45.290                : en:Chapter 02
    00:12:50.353                : en:Chapter 03
    00:19:08.689                : en:Chapter 04
    00:25:45.419                : en:Chapter 05
    00:29:31.436                : en:Chapter 06
    00:39:12.392                : en:Chapter 07
    00:48:04.465                : en:Chapter 08
    00:55:28.033                : en:Chapter 09
    01:01:32.772                : en:Chapter 10
    01:04:04.507                : en:Chapter 11
    01:13:42.960                : en:Chapter 12
    01:21:14.828                : en:Chapter 13
    01:27:09.891                : en:Chapter 14
    01:34:23.992                : en:Chapter 15
    01:42:03.784                : en:Chapter 16
    Download - Mirror 1:
    Download - Mirror 2:
     
  2. Loading...


Share This Page