Google Drive Train.to.Busan.2.Peninsula.2020.1080p.Bluray.Atmos.TrueHD.7.1.x264-EVO

Discussion in 'BDRip | 720p/1080p' started by DDLbase, Dec 4, 2020.

  1. DDLbase

    DDLbase Administrator Staff Member

    [​IMG]

    Rating: 5.4/10 based on 16,404 user ratings

    Genres: Action, Horror, Thriller

    A zombie virus has in the last 4 years spread to all South Korea. 4 Koreans in HK sail thru the blockade to Incheon for USD20,000,000 on a truck.

    [​IMG]
    Code:
    General
    Unique ID                   : 53060654945642065556978665786577218148 (0x27EB1C44AC310A88F1CF369FC0936A64)
    Complete name               : Train.to.Busan.2.Peninsula.2020.1080p.Bluray.Atmos.TrueHD.7.1.x264-EVO.mkv
    Format                      : Matroska
    Format version              : Version 4
    File size                   : 13.3 GiB
    Duration                    : 1 h 55 min
    Overall bit rate mode       : Variable
    Overall bit rate            : 16.4 Mb/s
    Encoded date                : UTC 2020-11-13 00:38:44
    Writing application         : mkvmerge v49.0.0 ('Sick Of Losing Soulmates') 64-bit
    Writing library             : libebml v1.4.0 + libmatroska v1.6.1
    
    Video
    ID                          : 2
    Format                      : AVC
    Format/Info                 : Advanced Video Codec
    Format profile              : [email protected]
    Format settings             : CABAC / 4 Ref Frames
    Format settings, CABAC      : Yes
    Format settings, Reference  : 4 frames
    Codec ID                    : V_MPEG4/ISO/AVC
    Duration                    : 1 h 55 min
    Bit rate                    : 9 000 kb/s
    Width                       : 1 920 pixels
    Height                      : 804 pixels
    Display aspect ratio        : 2.40:1
    Frame rate mode             : Constant
    Frame rate                  : 24.000 FPS
    Color space                 : YUV
    Chroma subsampling          : 4:2:0
    Bit depth                   : 8 bits
    Scan type                   : Progressive
    Bits/(Pixel*Frame)          : 0.243
    Stream size                 : 7.14 GiB (54%)
    Writing library             : x264 core 142 r2479 dd79a61
    Encoding settings           : cabac=1 / ref=1 / deblock=1:0:0 / analyse=0x3:0x3 / me=dia / subme=1 / psy=1 / psy_rd=1.00:0.00 / mixed_ref=0 / me_range=16 / chroma_me=1 / trellis=0 / 8x8dct=1 / cqm=0 / deadzone=21,11 / fast_pskip=1 / chroma_qp_offset=0 / threads=24 / lookahead_threads=4 / sliced_threads=0 / nr=0 / decimate=1 / interlaced=0 / bluray_compat=0 / constrained_intra=0 / bframes=3 / b_pyramid=2 / b_adapt=1 / b_bias=0 / direct=1 / weightb=1 / open_gop=0 / weightp=1 / keyint=240 / keyint_min=24 / scenecut=40 / intra_refresh=0 / rc_lookahead=0 / rc=abr / mbtree=0 / bitrate=9000 / ratetol=1.0 / qcomp=0.60 / qpmin=0 / qpmax=69 / qpstep=4 / vbv_maxrate=62500 / vbv_bufsize=78125 / nal_hrd=none / filler=0 / ip_ratio=1.40 / pb_ratio=1.30 / aq=1:1.00
    Default                     : Yes
    Forced                      : No
    Color range                 : Limited
    Color primaries             : BT.709
    Transfer characteristics    : BT.709
    Matrix coefficients         : BT.709
    
    Audio #1
    ID                          : 1
    Format                      : MLP FBA 16-ch
    Format/Info                 : Meridian Lossless Packing FBA with 16-channel presentation
    Commercial name             : Dolby TrueHD with Dolby Atmos
    Codec ID                    : A_TRUEHD
    Duration                    : 1 h 55 min
    Bit rate mode               : Variable
    Bit rate                    : 4 449 kb/s
    Maximum bit rate            : 7 755 kb/s
    Channel(s)                  : 8 channels
    Channel layout              : L R C LFE Ls Rs Lb Rb
    Sampling rate               : 48.0 kHz
    Frame rate                  : 1 200.000 FPS (40 SPF)
    Compression mode            : Lossless
    Delay relative to video     : -83 ms
    Stream size                 : 3.60 GiB (27%)
    Language                    : Korean
    Default                     : No
    Forced                      : No
    Number of dynamic objects   : 11
    Bed channel count           : 1 channel
    Bed channel configuration   : LFE
    
    Audio #2
    ID                          : 3
    Format                      : AC-3
    Format/Info                 : Audio Coding 3
    Commercial name             : Dolby Digital
    Codec ID                    : A_AC3
    Duration                    : 1 h 55 min
    Bit rate mode               : Constant
    Bit rate                    : 640 kb/s
    Channel(s)                  : 6 channels
    Channel layout              : L R C LFE Ls Rs
    Sampling rate               : 48.0 kHz
    Frame rate                  : 31.250 FPS (1536 SPF)
    Compression mode            : Lossy
    Delay relative to video     : -5 ms
    Stream size                 : 531 MiB (4%)
    Title                       : Surround
    Language                    : English
    Service kind                : Complete Main
    Default                     : Yes
    Forced                      : No
    
    Audio #3
    ID                          : 4
    Format                      : DTS XLL
    Format/Info                 : Digital Theater Systems
    Commercial name             : DTS-HD Master Audio
    Codec ID                    : A_DTS
    Duration                    : 1 h 55 min
    Bit rate mode               : Variable
    Bit rate                    : 2 408 kb/s
    Channel(s)                  : 6 channels
    Channel layout              : C L R Ls Rs LFE
    Sampling rate               : 48.0 kHz
    Frame rate                  : 93.750 FPS (512 SPF)
    Bit depth                   : 16 bits
    Compression mode            : Lossless
    Stream size                 : 1.95 GiB (15%)
    Title                       : Surround
    Language                    : English
    Default                     : No
    Forced                      : No
    
    Text
    ID                          : 5
    Format                      : UTF-8
    Codec ID                    : S_TEXT/UTF8
    Codec ID/Info               : UTF-8 Plain Text
    Duration                    : 1 h 48 min
    Bit rate                    : 24 b/s
    Count of elements           : 852
    Stream size                 : 19.4 KiB (0%)
    Language                    : English
    Default                     : Yes
    Forced                      : No
    
    Menu
    00:00:00.000                : :Chapter 1
    00:09:45.625                : :Chapter 2
    00:18:59.625                : :Chapter 3
    00:27:25.541                : :Chapter 4
    00:39:40.625                : :Chapter 5
    00:46:32.041                : :Chapter 6
    00:58:44.583                : :Chapter 7
    01:08:44.791                : :Chapter 8
    01:18:08.416                : :Chapter 9
    01:29:02.041                : :Chapter 10
    01:39:41.000                : :Chapter 11
    01:51:11.583                : :Chapter 12
    Download - Mirror 1:
    Download - Mirror 2:
     
  2. Loading...


Share This Page