Google Drive Triangle.of.Sadness.2022.1080p.WEB-DL.DD5.1.H.264-EVO

Discussion in 'Web-DL / Webrip | 1080p' started by DDLbase, Nov 23, 2022.

  1. DDLbase

    DDLbase Administrator Staff Member

    [​IMG]

    Rating: 7.9/10 based on 18,515 user ratings

    Genres: Comedy, Drama

    A fashion model celebrity couple join an eventful cruise for the super-rich.

    [​IMG]
    Code:
    General
    Unique ID                   : 253250038042546614778132108176076865252 (0xBE862EE41EB74542CBA7E66746A47EE4)
    Complete name               : Triangle.of.Sadness.2022.1080p.WEB-DL.DD5.1.H.264-EVO.mkv
    Format                      : Matroska
    Format version              : Version 4
    File size                   : 7.25 GiB
    Duration                    : 2 h 27 min
    Overall bit rate            : 7 047 kb/s
    Encoded date                : UTC 2022-11-22 05:04:36
    Writing application         : mkvmerge v63.0.0 ('Everything') 64-bit
    Writing library             : libebml v1.4.2 + libmatroska v1.6.4
    
    Video
    ID                          : 1
    Format                      : AVC
    Format/Info                 : Advanced Video Codec
    Format profile              : [email protected]
    Format settings             : CABAC / 5 Ref Frames
    Format settings, CABAC      : Yes
    Format settings, Reference  : 5 frames
    Codec ID                    : V_MPEG4/ISO/AVC
    Duration                    : 2 h 27 min
    Bit rate                    : 6 661 kb/s
    Width                       : 1 916 pixels
    Height                      : 800 pixels
    Display aspect ratio        : 2.40:1
    Frame rate mode             : Constant
    Frame rate                  : 23.976 (24000/1001) FPS
    Color space                 : YUV
    Chroma subsampling          : 4:2:0
    Bit depth                   : 8 bits
    Scan type                   : Progressive
    Bits/(Pixel*Frame)          : 0.181
    Stream size                 : 6.85 GiB (95%)
    Default                     : Yes
    Forced                      : No
    Color range                 : Limited
    Color primaries             : BT.709
    Transfer characteristics    : BT.709
    Matrix coefficients         : BT.709
    
    Audio
    ID                          : 2
    Format                      : AC-3
    Format/Info                 : Audio Coding 3
    Commercial name             : Dolby Digital
    Codec ID                    : A_AC3
    Duration                    : 2 h 27 min
    Bit rate mode               : Constant
    Bit rate                    : 384 kb/s
    Channel(s)                  : 6 channels
    Channel layout              : L R C LFE Ls Rs
    Sampling rate               : 48.0 kHz
    Frame rate                  : 31.250 FPS (1536 SPF)
    Compression mode            : Lossy
    Stream size                 : 404 MiB (5%)
    Language                    : English
    Service kind                : Complete Main
    Default                     : Yes
    Forced                      : No
    Download - Mirror 1:
    Download - Mirror 2:
     
  2. Loading...

    Similar Threads - Triangle Sadness 2022
    1. DDLbase
      Replies:
      0
      Views:
      924

Share This Page