Google Drive Troll.2022.1080p.NF.WEB-DL.DDP5.1.Atmos.H.264-playWEB

Discussion in 'Web-DL / Webrip | 1080p' started by DDLbase, Dec 2, 2022.

  1. DDLbase

    DDLbase Administrator Staff Member

    [​IMG]

    Rating: 6.1/10 based on 1,692 user ratings

    Genres: Action, Adventure, Drama

    Deep in the Dovre mountain, something gigantic wakes up after a thousand years in captivity. The creature destroys everything in its path and quickly approaches Oslo.

    [​IMG]
    Code:
    General
    Unique ID                   : 327356129115677945435057616493821978133 (0xF6467F45805E8029EB11D2BED0026615)
    Complete name               : Troll.2022.1080p.NF.WEB-DL.DDP5.1.Atmos.H.264-playWEB.mkv
    Format                      : Matroska
    Format version              : Version 4
    File size                   : 4.43 GiB
    Duration                    : 1 h 43 min
    Overall bit rate mode       : Variable
    Overall bit rate            : 6 111 kb/s
    Writing application         : mkvmerge v71.1.0 ('Fortitude') 64-bit
    Writing library             : libebml v1.4.4 + libmatroska v1.7.1
    
    Video
    ID                          : 1
    Format                      : AVC
    Format/Info                 : Advanced Video Codec
    Format profile              : [email protected]
    Format settings             : CABAC / 4 Ref Frames
    Format settings, CABAC      : Yes
    Format settings, Reference  : 4 frames
    Codec ID                    : V_MPEG4/ISO/AVC
    Duration                    : 1 h 43 min
    Bit rate mode               : Variable
    Bit rate                    : 5 338 kb/s
    Maximum bit rate            : 20.0 Mb/s
    Width                       : 1 920 pixels
    Height                      : 1 080 pixels
    Display aspect ratio        : 16:9
    Frame rate mode             : Constant
    Frame rate                  : 24.000 FPS
    Color space                 : YUV
    Chroma subsampling          : 4:2:0
    Bit depth                   : 8 bits
    Scan type                   : Progressive
    Bits/(Pixel*Frame)          : 0.107
    Stream size                 : 3.87 GiB (87%)
    Writing library             : x264 core 148 r2727 7d026e8
    Encoding settings           : cabac=1 / ref=4 / deblock=1:0:0 / analyse=0x3:0x111 / me=umh / subme=10 / psy=1 / psy_rd=1.00:0.00 / mixed_ref=1 / me_range=120 / chroma_me=1 / trellis=2 / 8x8dct=1 / cqm=0 / deadzone=21,11 / fast_pskip=1 / chroma_qp_offset=-2 / threads=8 / lookahead_threads=2 / sliced_threads=0 / nr=0 / decimate=1 / interlaced=0 / bluray_compat=0 / stitchable=1 / constrained_intra=0 / bframes=16 / b_pyramid=2 / b_adapt=2 / b_bias=0 / direct=3 / weightb=1 / open_gop=0 / weightp=2 / keyint=240 / keyint_min=121 / scenecut=0 / intra_refresh=0 / rc_lookahead=240 / rc=crf / mbtree=1 / crf=16.0 / qcomp=0.50 / qpmin=6 / qpmax=51 / qpstep=4 / vbv_maxrate=20000 / vbv_bufsize=25000 / crf_max=0.0 / nal_hrd=vbr / filler=0 / ip_ratio=1.40 / aq=1:0.80
    Language                    : Norwegian Bokmal
    Default                     : Yes
    Forced                      : No
    
    Audio
    ID                          : 2
    Format                      : E-AC-3 JOC
    Format/Info                 : Enhanced AC-3 with Joint Object Coding
    Commercial name             : Dolby Digital Plus with Dolby Atmos
    Codec ID                    : A_EAC3
    Duration                    : 1 h 43 min
    Bit rate mode               : Constant
    Bit rate                    : 768 kb/s
    Channel(s)                  : 6 channels
    Channel layout              : L R C LFE Ls Rs
    Sampling rate               : 48.0 kHz
    Frame rate                  : 31.250 FPS (1536 SPF)
    Compression mode            : Lossy
    Stream size                 : 570 MiB (13%)
    Language                    : Norwegian Bokmal
    Service kind                : Complete Main
    Default                     : Yes
    Forced                      : No
    Complexity index            : 16
    Number of dynamic objects   : 15
    Bed channel count           : 1 channel
    Bed channel configuration   : LFE
    
    Text #1
    ID                          : 3
    Format                      : UTF-8
    Codec ID                    : S_TEXT/UTF8
    Codec ID/Info               : UTF-8 Plain Text
    Duration                    : 2 s 0 ms
    Bit rate                    : 124 b/s
    Frame rate                  : 0.500 FPS
    Count of elements           : 1
    Stream size                 : 31.0 Bytes (0%)
    Title                       : Forced
    Language                    : Norwegian Bokmal
    Default                     : Yes
    Forced                      : Yes
    
    Text #2
    ID                          : 4
    Format                      : UTF-8
    Codec ID                    : S_TEXT/UTF8
    Codec ID/Info               : UTF-8 Plain Text
    Duration                    : 1 h 35 min
    Bit rate                    : 53 b/s
    Frame rate                  : 0.194 FPS
    Count of elements           : 1108
    Stream size                 : 37.0 KiB (0%)
    Title                       : SDH
    Language                    : Norwegian Bokmal
    Default                     : No
    Forced                      : No
    
    Text #3
    ID                          : 5
    Format                      : UTF-8
    Codec ID                    : S_TEXT/UTF8
    Codec ID/Info               : UTF-8 Plain Text
    Duration                    : 1 h 41 min
    Bit rate                    : 70 b/s
    Frame rate                  : 0.191 FPS
    Count of elements           : 1160
    Stream size                 : 51.9 KiB (0%)
    Language                    : Arabic
    Default                     : No
    Forced                      : No
    
    Text #4
    ID                          : 6
    Format                      : UTF-8
    Codec ID                    : S_TEXT/UTF8
    Codec ID/Info               : UTF-8 Plain Text
    Duration                    : 1 h 41 min
    Bit rate                    : 41 b/s
    Frame rate                  : 0.191 FPS
    Count of elements           : 1158
    Stream size                 : 31.1 KiB (0%)
    Language                    : Catalan
    Default                     : No
    Forced                      : No
    
    Text #5
    ID                          : 7
    Format                      : UTF-8
    Codec ID                    : S_TEXT/UTF8
    Codec ID/Info               : UTF-8 Plain Text
    Duration                    : 1 h 41 min
    Bit rate                    : 42 b/s
    Frame rate                  : 0.177 FPS
    Count of elements           : 1079
    Stream size                 : 31.6 KiB (0%)
    Language                    : Czech
    Default                     : No
    Forced                      : No
    
    Text #6
    ID                          : 8
    Format                      : UTF-8
    Codec ID                    : S_TEXT/UTF8
    Codec ID/Info               : UTF-8 Plain Text
    Duration                    : 1 h 41 min
    Bit rate                    : 39 b/s
    Frame rate                  : 0.174 FPS
    Count of elements           : 1056
    Stream size                 : 29.5 KiB (0%)
    Language                    : Danish
    Default                     : No
    Forced                      : No
    
    Text #7
    ID                          : 9
    Format                      : UTF-8
    Codec ID                    : S_TEXT/UTF8
    Codec ID/Info               : UTF-8 Plain Text
    Duration                    : 1 h 41 min
    Bit rate                    : 44 b/s
    Frame rate                  : 0.168 FPS
    Count of elements           : 1018
    Stream size                 : 33.3 KiB (0%)
    Language                    : German
    Default                     : No
    Forced                      : No
    
    Text #8
    ID                          : 10
    Format                      : UTF-8
    Codec ID                    : S_TEXT/UTF8
    Codec ID/Info               : UTF-8 Plain Text
    Duration                    : 1 h 41 min
    Bit rate                    : 68 b/s
    Frame rate                  : 0.192 FPS
    Count of elements           : 1166
    Stream size                 : 51.2 KiB (0%)
    Language                    : Greek
    Default                     : No
    Forced                      : No
    
    Text #9
    ID                          : 11
    Format                      : UTF-8
    Codec ID                    : S_TEXT/UTF8
    Codec ID/Info               : UTF-8 Plain Text
    Duration                    : 1 h 41 min
    Bit rate                    : 62 b/s
    Frame rate                  : 0.281 FPS
    Count of elements           : 1703
    Stream size                 : 46.3 KiB (0%)
    Title                       : SDH
    Language                    : English
    Default                     : No
    Forced                      : No
    
    Text #10
    ID                          : 12
    Format                      : UTF-8
    Codec ID                    : S_TEXT/UTF8
    Codec ID/Info               : UTF-8 Plain Text
    Duration                    : 1 h 40 min
    Bit rate                    : 39 b/s
    Frame rate                  : 0.180 FPS
    Count of elements           : 1087
    Stream size                 : 29.3 KiB (0%)
    Language                    : English
    Default                     : No
    Forced                      : No
    
    Text #11
    ID                          : 13
    Format                      : UTF-8
    Codec ID                    : S_TEXT/UTF8
    Codec ID/Info               : UTF-8 Plain Text
    Duration                    : 1 h 33 min
    Bit rate                    : 52 b/s
    Frame rate                  : 0.223 FPS
    Count of elements           : 1254
    Stream size                 : 35.8 KiB (0%)
    Language                    : English
    Default                     : No
    Forced                      : No
    
    Text #12
    ID                          : 14
    Format                      : UTF-8
    Codec ID                    : S_TEXT/UTF8
    Codec ID/Info               : UTF-8 Plain Text
    Duration                    : 1 h 33 min
    Bit rate                    : 45 b/s
    Frame rate                  : 0.199 FPS
    Count of elements           : 1118
    Stream size                 : 31.2 KiB (0%)
    Language                    : Spanish
    Default                     : No
    Forced                      : No
    
    Text #13
    ID                          : 15
    Format                      : UTF-8
    Codec ID                    : S_TEXT/UTF8
    Codec ID/Info               : UTF-8 Plain Text
    Duration                    : 1 h 40 min
    Bit rate                    : 41 b/s
    Frame rate                  : 0.187 FPS
    Count of elements           : 1132
    Stream size                 : 31.0 KiB (0%)
    Title                       : Europe
    Language                    : Spanish
    Default                     : No
    Forced                      : No
    
    Text #14
    ID                          : 16
    Format                      : UTF-8
    Codec ID                    : S_TEXT/UTF8
    Codec ID/Info               : UTF-8 Plain Text
    Duration                    : 1 h 40 min
    Bit rate                    : 42 b/s
    Frame rate                  : 0.193 FPS
    Count of elements           : 1166
    Stream size                 : 31.1 KiB (0%)
    Language                    : Basque
    Default                     : No
    Forced                      : No
    
    Text #15
    ID                          : 17
    Format                      : UTF-8
    Codec ID                    : S_TEXT/UTF8
    Codec ID/Info               : UTF-8 Plain Text
    Duration                    : 1 h 41 min
    Bit rate                    : 42 b/s
    Frame rate                  : 0.166 FPS
    Count of elements           : 1010
    Stream size                 : 31.2 KiB (0%)
    Language                    : Finnish
    Default                     : No
    Forced                      : No
    
    Text #16
    ID                          : 18
    Format                      : UTF-8
    Codec ID                    : S_TEXT/UTF8
    Codec ID/Info               : UTF-8 Plain Text
    Duration                    : 1 h 41 min
    Bit rate                    : 43 b/s
    Frame rate                  : 0.192 FPS
    Count of elements           : 1165
    Stream size                 : 32.0 KiB (0%)
    Language                    : fil
    Default                     : No
    Forced                      : No
    
    Text #17
    ID                          : 19
    Format                      : UTF-8
    Codec ID                    : S_TEXT/UTF8
    Codec ID/Info               : UTF-8 Plain Text
    Duration                    : 1 h 41 min
    Bit rate                    : 46 b/s
    Frame rate                  : 0.178 FPS
    Count of elements           : 1079
    Stream size                 : 34.7 KiB (0%)
    Language                    : French
    Default                     : No
    Forced                      : No
    
    Text #18
    ID                          : 20
    Format                      : UTF-8
    Codec ID                    : S_TEXT/UTF8
    Codec ID/Info               : UTF-8 Plain Text
    Duration                    : 1 h 41 min
    Bit rate                    : 38 b/s
    Frame rate                  : 0.193 FPS
    Count of elements           : 1172
    Stream size                 : 28.4 KiB (0%)
    Language                    : Galician
    Default                     : No
    Forced                      : No
    
    Text #19
    ID                          : 21
    Format                      : UTF-8
    Codec ID                    : S_TEXT/UTF8
    Codec ID/Info               : UTF-8 Plain Text
    Duration                    : 1 h 41 min
    Bit rate                    : 64 b/s
    Frame rate                  : 0.182 FPS
    Count of elements           : 1104
    Stream size                 : 47.9 KiB (0%)
    Language                    : Hebrew
    Default                     : No
    Forced                      : No
    
    Text #20
    ID                          : 22
    Format                      : UTF-8
    Codec ID                    : S_TEXT/UTF8
    Codec ID/Info               : UTF-8 Plain Text
    Duration                    : 1 h 40 min
    Bit rate                    : 34 b/s
    Frame rate                  : 0.193 FPS
    Count of elements           : 1166
    Stream size                 : 25.8 KiB (0%)
    Language                    : Croatian
    Default                     : No
    Forced                      : No
    
    Text #21
    ID                          : 23
    Format                      : UTF-8
    Codec ID                    : S_TEXT/UTF8
    Codec ID/Info               : UTF-8 Plain Text
    Duration                    : 1 h 41 min
    Bit rate                    : 43 b/s
    Frame rate                  : 0.187 FPS
    Count of elements           : 1135
    Stream size                 : 32.4 KiB (0%)
    Language                    : Hungarian
    Default                     : No
    Forced                      : No
    
    Text #22
    ID                          : 24
    Format                      : UTF-8
    Codec ID                    : S_TEXT/UTF8
    Codec ID/Info               : UTF-8 Plain Text
    Duration                    : 1 h 41 min
    Bit rate                    : 41 b/s
    Frame rate                  : 0.182 FPS
    Count of elements           : 1108
    Stream size                 : 31.1 KiB (0%)
    Language                    : Indonesian
    Default                     : No
    Forced                      : No
    
    Text #23
    ID                          : 25
    Format                      : UTF-8
    Codec ID                    : S_TEXT/UTF8
    Codec ID/Info               : UTF-8 Plain Text
    Duration                    : 1 h 41 min
    Bit rate                    : 39 b/s
    Frame rate                  : 0.186 FPS
    Count of elements           : 1131
    Stream size                 : 29.4 KiB (0%)
    Language                    : Italian
    Default                     : No
    Forced                      : No
    
    Text #24
    ID                          : 26
    Format                      : UTF-8
    Codec ID                    : S_TEXT/UTF8
    Codec ID/Info               : UTF-8 Plain Text
    Duration                    : 1 h 41 min
    Bit rate                    : 42 b/s
    Frame rate                  : 0.172 FPS
    Count of elements           : 1046
    Stream size                 : 31.2 KiB (0%)
    Language                    : Japanese
    Default                     : No
    Forced                      : No
    
    Text #25
    ID                          : 27
    Format                      : UTF-8
    Codec ID                    : S_TEXT/UTF8
    Codec ID/Info               : UTF-8 Plain Text
    Duration                    : 1 h 41 min
    Bit rate                    : 51 b/s
    Frame rate                  : 0.191 FPS
    Count of elements           : 1161
    Stream size                 : 37.9 KiB (0%)
    Language                    : Korean
    Default                     : No
    Forced                      : No
    
    Text #26
    ID                          : 28
    Format                      : UTF-8
    Codec ID                    : S_TEXT/UTF8
    Codec ID/Info               : UTF-8 Plain Text
    Duration                    : 1 h 40 min
    Bit rate                    : 41 b/s
    Frame rate                  : 0.189 FPS
    Count of elements           : 1144
    Stream size                 : 30.5 KiB (0%)
    Language                    : Malay
    Default                     : No
    Forced                      : No
    
    Text #27
    ID                          : 29
    Format                      : UTF-8
    Codec ID                    : S_TEXT/UTF8
    Codec ID/Info               : UTF-8 Plain Text
    Duration                    : 1 h 41 min
    Bit rate                    : 38 b/s
    Frame rate                  : 0.163 FPS
    Count of elements           : 992
    Stream size                 : 28.5 KiB (0%)
    Language                    : Dutch
    Default                     : No
    Forced                      : No
    
    Text #28
    ID                          : 30
    Format                      : UTF-8
    Codec ID                    : S_TEXT/UTF8
    Codec ID/Info               : UTF-8 Plain Text
    Duration                    : 1 h 41 min
    Bit rate                    : 39 b/s
    Frame rate                  : 0.176 FPS
    Count of elements           : 1069
    Stream size                 : 29.3 KiB (0%)
    Language                    : Polish
    Default                     : No
    Forced                      : No
    
    Text #29
    ID                          : 31
    Format                      : UTF-8
    Codec ID                    : S_TEXT/UTF8
    Codec ID/Info               : UTF-8 Plain Text
    Duration                    : 1 h 41 min
    Bit rate                    : 43 b/s
    Frame rate                  : 0.191 FPS
    Count of elements           : 1161
    Stream size                 : 32.0 KiB (0%)
    Language                    : Portuguese
    Default                     : No
    Forced                      : No
    
    Text #30
    ID                          : 32
    Format                      : UTF-8
    Codec ID                    : S_TEXT/UTF8
    Codec ID/Info               : UTF-8 Plain Text
    Duration                    : 1 h 40 min
    Bit rate                    : 40 b/s
    Frame rate                  : 0.189 FPS
    Count of elements           : 1144
    Stream size                 : 30.1 KiB (0%)
    Title                       : Brazil
    Language                    : Portuguese
    Default                     : No
    Forced                      : No
    
    Text #31
    ID                          : 33
    Format                      : UTF-8
    Codec ID                    : S_TEXT/UTF8
    Codec ID/Info               : UTF-8 Plain Text
    Duration                    : 1 h 40 min
    Bit rate                    : 45 b/s
    Frame rate                  : 0.185 FPS
    Count of elements           : 1120
    Stream size                 : 33.8 KiB (0%)
    Language                    : Romanian
    Default                     : No
    Forced                      : No
    
    Text #32
    ID                          : 34
    Format                      : UTF-8
    Codec ID                    : S_TEXT/UTF8
    Codec ID/Info               : UTF-8 Plain Text
    Duration                    : 1 h 40 min
    Bit rate                    : 68 b/s
    Frame rate                  : 0.185 FPS
    Count of elements           : 1121
    Stream size                 : 50.7 KiB (0%)
    Language                    : Russian
    Default                     : No
    Forced                      : No
    
    Text #33
    ID                          : 35
    Format                      : UTF-8
    Codec ID                    : S_TEXT/UTF8
    Codec ID/Info               : UTF-8 Plain Text
    Duration                    : 1 h 41 min
    Bit rate                    : 39 b/s
    Frame rate                  : 0.178 FPS
    Count of elements           : 1081
    Stream size                 : 29.6 KiB (0%)
    Language                    : Swedish
    Default                     : No
    Forced                      : No
    
    Text #34
    ID                          : 36
    Format                      : UTF-8
    Codec ID                    : S_TEXT/UTF8
    Codec ID/Info               : UTF-8 Plain Text
    Duration                    : 1 h 41 min
    Bit rate                    : 106 b/s
    Frame rate                  : 0.191 FPS
    Count of elements           : 1162
    Stream size                 : 79.0 KiB (0%)
    Language                    : Thai
    Default                     : No
    Forced                      : No
    
    Text #35
    ID                          : 37
    Format                      : UTF-8
    Codec ID                    : S_TEXT/UTF8
    Codec ID/Info               : UTF-8 Plain Text
    Duration                    : 1 h 40 min
    Bit rate                    : 42 b/s
    Frame rate                  : 0.178 FPS
    Count of elements           : 1076
    Stream size                 : 31.5 KiB (0%)
    Language                    : Turkish
    Default                     : No
    Forced                      : No
    
    Text #36
    ID                          : 38
    Format                      : UTF-8
    Codec ID                    : S_TEXT/UTF8
    Codec ID/Info               : UTF-8 Plain Text
    Duration                    : 1 h 41 min
    Bit rate                    : 65 b/s
    Frame rate                  : 0.188 FPS
    Count of elements           : 1144
    Stream size                 : 48.7 KiB (0%)
    Language                    : Ukrainian
    Default                     : No
    Forced                      : No
    
    Text #37
    ID                          : 39
    Format                      : UTF-8
    Codec ID                    : S_TEXT/UTF8
    Codec ID/Info               : UTF-8 Plain Text
    Duration                    : 1 h 41 min
    Bit rate                    : 59 b/s
    Frame rate                  : 0.193 FPS
    Count of elements           : 1172
    Stream size                 : 43.8 KiB (0%)
    Language                    : Vietnamese
    Default                     : No
    Forced                      : No
    
    Text #38
    ID                          : 40
    Format                      : UTF-8
    Codec ID                    : S_TEXT/UTF8
    Codec ID/Info               : UTF-8 Plain Text
    Duration                    : 1 h 40 min
    Bit rate                    : 46 b/s
    Frame rate                  : 0.194 FPS
    Count of elements           : 1172
    Stream size                 : 34.2 KiB (0%)
    Title                       : Simplified
    Language                    : Chinese
    Default                     : No
    Forced                      : No
    
    Text #39
    ID                          : 41
    Format                      : UTF-8
    Codec ID                    : S_TEXT/UTF8
    Codec ID/Info               : UTF-8 Plain Text
    Duration                    : 1 h 40 min
    Bit rate                    : 44 b/s
    Frame rate                  : 0.192 FPS
    Count of elements           : 1164
    Stream size                 : 32.7 KiB (0%)
    Title                       : Traditional
    Language                    : Chinese
    Default                     : No
    Forced                      : No
    Download - Mirror 1:
    Download - Mirror 2:
     
  2. Loading...


Share This Page