Google Drive Troy.2004.Directors.Cut.1080p.BluRay.DD5.1.x264-CtrlHD

Discussion in 'BDRip | 720p/1080p' started by DDLbase, Dec 29, 2020.

  1. DDLbase

    DDLbase Administrator Staff Member

    [​IMG]

    Rating: 7.3/10 based on 486,316 user ratings

    Genres: Drama, History

    An adaptation of Homer’s great epic, the film follows the assault on Troy by the united Greek forces and chronicles the fates of the men involved.

    [​IMG]
    Code:
    General
    Unique ID                   : 9938423326906115811040976305075279425 (0x77A1219F4418005BBC74590C1E45641)
    Complete name               : Troy.2004.Directors.Cut.1080p.BluRay.DD5.1.x264-CtrlHD.mkv
    Format                      : Matroska
    Format version              : Version 4
    File size                   : 12.1 GiB
    Duration                    : 3 h 16 min
    Overall bit rate            : 8 805 kb/s
    Movie name                  : Troy.2004.Directors.Cut.1080p.BluRay.DD5.1.x264-CtrlHD
    Encoded date                : UTC 2020-12-26 15:03:34
    Writing application         : mkvmerge v51.0.0 ('I Wish') 64-bit
    Writing library             : libebml v1.4.0 + libmatroska v1.6.2
    
    Video
    ID                          : 1
    Format                      : AVC
    Format/Info                 : Advanced Video Codec
    Format profile              : [email protected]
    Format settings             : CABAC / 5 Ref Frames
    Format settings, CABAC      : Yes
    Format settings, Reference  : 5 frames
    Codec ID                    : V_MPEG4/ISO/AVC
    Duration                    : 3 h 16 min
    Bit rate                    : 8 163 kb/s
    Width                       : 1 920 pixels
    Height                      : 792 pixels
    Display aspect ratio        : 2.40:1
    Frame rate mode             : Constant
    Frame rate                  : 23.976 (24000/1001) FPS
    Color space                 : YUV
    Chroma subsampling          : 4:2:0
    Bit depth                   : 8 bits
    Scan type                   : Progressive
    Bits/(Pixel*Frame)          : 0.224
    Stream size                 : 11.2 GiB (93%)
    Title                       : Troy.2004.Directors.Cut.1080p.BluRay.DD5.1.x264-CtrlHD
    Writing library             : x264 core 161 r3027 4121277
    Encoding settings           : cabac=1 / ref=5 / deblock=1:-3:-3 / analyse=0x3:0x133 / me=umh / subme=10 / psy=1 / psy_rd=0.80:0.00 / mixed_ref=1 / me_range=32 / chroma_me=1 / trellis=2 / 8x8dct=1 / cqm=0 / deadzone=21,11 / fast_pskip=0 / chroma_qp_offset=-2 / threads=25 / lookahead_threads=6 / sliced_threads=0 / nr=0 / decimate=1 / interlaced=0 / bluray_compat=0 / constrained_intra=0 / bframes=11 / b_pyramid=2 / b_adapt=2 / b_bias=0 / direct=3 / weightb=1 / open_gop=0 / weightp=2 / keyint=250 / keyint_min=23 / scenecut=40 / intra_refresh=0 / rc=crf / mbtree=0 / crf=18.5 / qcomp=0.60 / qpmin=0 / qpmax=69 / qpstep=4 / ip_ratio=1.40 / pb_ratio=1.30 / aq=3:0.85
    Language                    : English
    Default                     : Yes
    Forced                      : No
    
    Audio
    ID                          : 2
    Format                      : AC-3
    Format/Info                 : Audio Coding 3
    Commercial name             : Dolby Digital
    Codec ID                    : A_AC3
    Duration                    : 3 h 16 min
    Bit rate mode               : Constant
    Bit rate                    : 640 kb/s
    Channel(s)                  : 6 channels
    Channel layout              : L R C LFE Ls Rs
    Sampling rate               : 48.0 kHz
    Frame rate                  : 31.250 FPS (1536 SPF)
    Compression mode            : Lossy
    Stream size                 : 897 MiB (7%)
    Language                    : English
    Service kind                : Complete Main
    Default                     : Yes
    Forced                      : No
    
    Text
    ID                          : 3
    Format                      : UTF-8
    Codec ID                    : S_TEXT/UTF8
    Codec ID/Info               : UTF-8 Plain Text
    Duration                    : 3 h 13 min
    Bit rate                    : 31 b/s
    Count of elements           : 1377
    Stream size                 : 43.9 KiB (0%)
    Language                    : English
    Default                     : No
    Forced                      : No
    
    Menu
    00:00:00.000                : en:Chapter 01
    00:01:29.839                : en:Chapter 02
    00:08:16.245                : en:Chapter 03
    00:11:06.165                : en:Chapter 04
    00:18:21.850                : en:Chapter 05
    00:25:33.365                : en:Chapter 06
    00:27:41.159                : en:Chapter 07
    00:33:23.001                : en:Chapter 08
    00:36:39.822                : en:Chapter 09
    00:40:01.232                : en:Chapter 10
    00:44:49.937                : en:Chapter 11
    00:52:31.982                : en:Chapter 12
    00:57:59.809                : en:Chapter 13
    01:03:48.658                : en:Chapter 14
    01:07:41.057                : en:Chapter 15
    01:12:36.018                : en:Chapter 16
    01:17:55.671                : en:Chapter 17
    01:21:31.469                : en:Chapter 18
    01:23:55.739                : en:Chapter 19
    01:28:49.282                : en:Chapter 20
    01:32:23.204                : en:Chapter 21
    01:36:58.103                : en:Chapter 22
    01:41:38.926                : en:Chapter 23
    01:44:56.832                : en:Chapter 24
    01:48:15.280                : en:Chapter 25
    01:54:20.562                : en:Chapter 26
    01:57:25.705                : en:Chapter 27
    02:00:05.364                : en:Chapter 28
    02:03:46.919                : en:Chapter 29
    02:08:40.045                : en:Chapter 30
    02:10:42.584                : en:Chapter 31
    02:15:10.352                : en:Chapter 32
    02:20:47.647                : en:Chapter 33
    02:23:08.079                : en:Chapter 34
    02:26:24.942                : en:Chapter 35
    02:28:29.400                : en:Chapter 36
    02:34:48.445                : en:Chapter 37
    02:37:28.814                : en:Chapter 38
    02:41:20.045                : en:Chapter 39
    02:45:40.513                : en:Chapter 40
    02:51:09.425                : en:Chapter 41
    02:55:38.861                : en:Chapter 42
    02:58:42.670                : en:Chapter 43
    03:02:24.183                : en:Chapter 44
    03:05:12.518                : en:Chapter 45
    Download - Mirror 1:
    Download - Mirror 2:
     
  2. Loading...


Share This Page