Google Drive True.History.of.the.Kelly.Gang.2019.1080p.BluRay.X264-AMIABLE

Discussion in 'BDRip | 720p/1080p' started by DDLbase, Jul 8, 2020.

  1. DDLbase

    DDLbase Administrator Staff Member

    [​IMG]

    Rating: 6.1/10 based on 4,150 user ratings

    Genres: Biography, Crime, Drama, Western

    Based on Peter Carey’s novel. The story of Australian bushranger Ned Kelly and his gang as they flee from authorities during the 1870s.

    [​IMG]
    Code:
    General
    Unique ID                   : 335189204173646099526061204848116402423 (0xFC2B17B0654E70EC2931C5ED43DA88F7)
    Complete name               : True.History.of.the.Kelly.Gang.2019.1080p.BluRay.X264-AMIABLE.mkv
    Format                      : Matroska
    Format version              : Version 4
    File size                   : 19.3 GiB
    Duration                    : 2 h 5 min
    Overall bit rate mode       : Variable
    Overall bit rate            : 22.1 Mb/s
    Writing application         : mkvmerge v47.0.0 ('Black Flag') 64-bit
    Writing library             : libebml v1.3.10 + libmatroska v1.5.2
    
    Video
    ID                          : 1
    Format                      : AVC
    Format/Info                 : Advanced Video Codec
    Format profile              : [email protected]
    Format settings             : CABAC / 4 Ref Frames
    Format settings, CABAC      : Yes
    Format settings, Reference  : 4 frames
    Codec ID                    : V_MPEG4/ISO/AVC
    Duration                    : 2 h 5 min
    Bit rate                    : 18.8 Mb/s
    Width                       : 1 920 pixels
    Height                      : 1 034 pixels
    Display aspect ratio        : 1.85:1
    Frame rate mode             : Constant
    Frame rate                  : 24.000 FPS
    Color space                 : YUV
    Chroma subsampling          : 4:2:0
    Bit depth                   : 8 bits
    Scan type                   : Progressive
    Bits/(Pixel*Frame)          : 0.394
    Stream size                 : 16.4 GiB (85%)
    Writing library             : x264 core 161 r3015 4c2aafd
    Encoding settings           : cabac=1 / ref=4 / deblock=1:-3:-3 / analyse=0x3:0x133 / me=umh / subme=9 / psy=1 / psy_rd=1.00:0.00 / mixed_ref=1 / me_range=32 / chroma_me=1 / trellis=2 / 8x8dct=1 / cqm=0 / deadzone=21,11 / fast_pskip=0 / chroma_qp_offset=-2 / threads=32 / lookahead_threads=2 / sliced_threads=0 / nr=0 / decimate=0 / interlaced=0 / bluray_compat=0 / constrained_intra=0 / bframes=3 / b_pyramid=2 / b_adapt=2 / b_bias=0 / direct=3 / weightb=1 / open_gop=0 / weightp=2 / keyint=250 / keyint_min=24 / scenecut=40 / intra_refresh=0 / rc=crf / mbtree=0 / crf=17.2 / qcomp=0.60 / qpmin=0 / qpmax=69 / qpstep=4 / ip_ratio=1.40 / pb_ratio=1.30 / aq=3:0.80
    Default                     : Yes
    Forced                      : No
    Color range                 : Limited
    Matrix coefficients         : BT.709
    
    Audio
    ID                          : 2
    Format                      : DTS XLL
    Format/Info                 : Digital Theater Systems
    Commercial name             : DTS-HD Master Audio
    Codec ID                    : A_DTS
    Duration                    : 2 h 5 min
    Bit rate mode               : Variable
    Bit rate                    : 3 275 kb/s
    Channel(s)                  : 6 channels
    Channel layout              : C L R Ls Rs LFE
    Sampling rate               : 48.0 kHz
    Frame rate                  : 93.750 FPS (512 SPF)
    Bit depth                   : 24 bits
    Compression mode            : Lossless
    Stream size                 : 2.86 GiB (15%)
    Title                       : DTS-HD MA 5.1
    Language                    : English
    Default                     : Yes
    Forced                      : No
    
    Text #1
    ID                          : 3
    Format                      : UTF-8
    Codec ID                    : S_TEXT/UTF8
    Codec ID/Info               : UTF-8 Plain Text
    Duration                    : 1 h 59 min
    Bit rate                    : 54 b/s
    Count of elements           : 1579
    Stream size                 : 47.8 KiB (0%)
    Title                       : Stripped SRT
    Language                    : English
    Default                     : No
    Forced                      : No
    
    Text #2
    ID                          : 4
    Format                      : UTF-8
    Codec ID                    : S_TEXT/UTF8
    Codec ID/Info               : UTF-8 Plain Text
    Duration                    : 2 h 0 min
    Bit rate                    : 59 b/s
    Count of elements           : 1736
    Stream size                 : 52.2 KiB (0%)
    Title                       : SDH SRT
    Language                    : English
    Default                     : No
    Forced                      : No
    
    Text #3
    ID                          : 5
    Format                      : PGS
    Muxing mode                 : zlib
    Codec ID                    : S_HDMV/PGS
    Codec ID/Info               : Picture based subtitle format used on BDs/HD-DVDs
    Duration                    : 2 h 0 min
    Bit rate                    : 43.8 kb/s
    Count of elements           : 3472
    Stream size                 : 37.7 MiB (0%)
    Title                       : English SDH
    Language                    : English
    Default                     : No
    Forced                      : No
    
    Menu
    00:00:00.000                : en:Chapter 01
    00:13:26.000                : en:Chapter 02
    00:30:25.000                : en:Chapter 03
    00:47:51.000                : en:Chapter 04
    01:01:52.167                : en:Chapter 05
    01:17:01.750                : en:Chapter 06
    01:33:16.708                : en:Chapter 07
    01:51:24.000                : en:Chapter 08
    Download:
    Download - Mirror 2:
     
  2. Loading...


Share This Page