Yandex.Disk Unhinged.2020.2160p.HDR.WEB-DL.DD+5.1.HEVC-EVO

Discussion in 'Web-DL / Webrip | 4K' started by DDLbase, Oct 20, 2020.

  1. DDLbase

    DDLbase Administrator Staff Member

    [​IMG]

    Rating: 6.1/10 based on 8,364 user ratings

    Genres: Action, Thriller

    After a confrontation with an unstable man at an intersection, a woman becomes the target of his rage.

    [​IMG]
    Code:
    General
    Unique ID                   : 30378468575350320842074688271996743398 (0x16DAAE2383652E2B7A67B1617E28EEE6)
    Complete name               : Unhinged.2020.2160p.HDR.WEB-DL.DD+5.1.HEVC-EVO.mkv
    Format                      : Matroska
    Format version              : Version 4
    File size                   : 9.72 GiB
    Duration                    : 1 h 30 min
    Overall bit rate            : 15.4 Mb/s
    Movie name                  : EVO
    Encoded date                : UTC 2020-10-20 17:54:35
    Writing application         : mkvmerge v49.0.0 ('Sick Of Losing Soulmates') 64-bit
    Writing library             : libebml v1.4.0 + libmatroska v1.6.1
    
    Video
    ID                          : 2
    Format                      : HEVC
    Format/Info                 : High Efficiency Video Coding
    Format profile              : Main [email protected]@Main
    Codec ID                    : V_MPEGH/ISO/HEVC
    Duration                    : 1 h 30 min
    Bit rate                    : 14.8 Mb/s
    Width                       : 3 840 pixels
    Height                      : 2 160 pixels
    Display aspect ratio        : 16:9
    Frame rate mode             : Constant
    Frame rate                  : 23.976 (24000/1001) FPS
    Color space                 : YUV
    Chroma subsampling          : 4:2:0 (Type 2)
    Bit depth                   : 10 bits
    Bits/(Pixel*Frame)          : 0.074
    Stream size                 : 9.32 GiB (96%)
    Default                     : Yes
    Forced                      : No
    Color range                 : Limited
    Color primaries             : BT.2020
    Transfer characteristics    : PQ
    Matrix coefficients         : BT.2020 non-constant
    
    Audio
    ID                          : 1
    Format                      : E-AC-3
    Format/Info                 : Enhanced AC-3
    Commercial name             : Dolby Digital Plus
    Codec ID                    : A_EAC3
    Duration                    : 1 h 30 min
    Bit rate mode               : Constant
    Bit rate                    : 640 kb/s
    Channel(s)                  : 6 channels
    Channel layout              : L R C LFE Ls Rs
    Sampling rate               : 48.0 kHz
    Frame rate                  : 31.250 FPS (1536 SPF)
    Compression mode            : Lossy
    Stream size                 : 413 MiB (4%)
    Language                    : English
    Service kind                : Complete Main
    Default                     : Yes
    Forced                      : No
    Download - Mirror 1:
    Download - Mirror 2:
     
  2. Loading...


Share This Page