Google Drive Van Helsing (2004) BluRay REMUX 1080p AVC DTS-HD MA 5.1 - DSG

Discussion in 'BD REMUX | 1080p' started by DDLbase, Nov 2, 2019.

  1. DDLbase

    DDLbase Administrator Staff Member

    [​IMG]
    Van Helsing (2004)

    [​IMG] 6.1/10 [​IMG] 232,486

    Plot Summary

    Van Helsing is a 2004 American period action horror film written and directed by Stephen Sommers. It stars Hugh Jackman as vigilante monster hunter Van Helsing, and Kate Beckinsale as Anna Valerious. The film is a homage and tribute to the Universal Horror Monster films from the 1930s and '40s (also produced by Universal Studios which were in turn based on novels by Bram Stoker and Mary Shelley), of which Sommers is a fan.

    The eponymous character was inspired by the Dutch vampire hunter Abraham Van Helsing from Irish author Bram Stoker's novel Dracula. Distributed by Universal Pictures, the film includes a number of monsters such as Count Dracula, Frankenstein's monster, Mr. Hyde and werewolves in a way similar to the multi-monster movies that Universal produced in the 1940s, such as Frankenstein Meets the Wolf Man, House of Frankenstein and House of Dracula.

    Despite mostly negative reviews, the film grossed over $300 million worldwide.

    Movie Info
    • Rating: PG-13
    • Genre: Action, Adventure, Fantasy
    • Directed By: Stephen Sommers
    • Written By: Stephen Sommers
    • Starring: Hugh Jackman, Kate Beckinsale, Richard Roxburgh, David Wenham
    • Release Date: 07 May 2004
    • Runtime: 131 min
    • On Disk/Streaming: 20 Sep 2005
    • Box Office (USA): $120,177,084
    • Awards: 3 wins & 20 nominations.
    • Studio: Universal Pictures
    [​IMG]
    [​IMG]
    [​IMG]
    [​IMG]
    [​IMG]
    [​IMG]
    [​IMG]
    [​IMG]
    [​IMG]
    [​IMG]
    [​IMG]
    [​IMG]

    Code:
    General
    Unique ID                                : 213386579946876037757871949232406617579 (0xA088C2A9E70C8855AFC7FC7327995DEB)
    Complete name                            : Van.Helsing.2004.BluRay.REMUX.1080p.AVC.DTS-HD.MA.5.1-DSG.mkv
    Format                                   : Matroska
    Format version                           : Version 4 / Version 2
    File size                                : 29.5 GiB
    Duration                                 : 2 h 11 min
    Overall bit rate mode                    : Variable
    Overall bit rate                         : 32.2 Mb/s
    Encoded date                             : UTC 2019-08-30 13:23:52
    Writing application                      : mkvmerge v36.0.0 ('Is That Jazz?') 64-bit
    Writing library                          : libebml v1.3.9 + libmatroska v1.5.2
    
    Video
    ID                                       : 1
    Format                                   : AVC
    Format/Info                              : Advanced Video Codec
    Format profile                           : [email protected]
    Format settings                          : CABAC / 4 Ref Frames
    Format settings, CABAC                   : Yes
    Format settings, ReFrames                : 4 frames
    Codec ID                                 : V_MPEG4/ISO/AVC
    Duration                                 : 2 h 11 min
    Bit rate mode                            : Variable
    Bit rate                                 : 26.9 Mb/s
    Maximum bit rate                         : 35.0 Mb/s
    Width                                    : 1 920 pixels
    Height                                   : 1 080 pixels
    Display aspect ratio                     : 16:9
    Frame rate mode                          : Constant
    Frame rate                               : 23.976 (24000/1001) FPS
    Color space                              : YUV
    Chroma subsampling                       : 4:2:0
    Bit depth                                : 8 bits
    Scan type                                : Progressive
    Bits/(Pixel*Frame)                       : 0.541
    Stream size                              : 24.7 GiB (84%)
    Title                                    : VAN HELSING (BD)
    Default                                  : Yes
    Forced                                   : No
    Color range                              : Limited
    Color primaries                          : BT.709
    Transfer characteristics                 : BT.709
    Matrix coefficients                      : BT.709
    
    Audio #1
    ID                                       : 2
    Format                                   : DTS
    Format/Info                              : Digital Theater Systems
    Format profile                           : MA / Core
    Codec ID                                 : A_DTS
    Duration                                 : 2 h 11 min
    Bit rate mode                            : Variable / Constant
    Bit rate                                 : 4 566 kb/s / 1 509 kb/s
    Channel(s)                               : 6 channels
    Channel positions                        : Front: L C R, Side: L R, LFE
    Sampling rate                            : 48.0 kHz
    Frame rate                               : 93.750 FPS (512 SPF)
    Bit depth                                : 24 bits
    Compression mode                         : Lossless / Lossy
    Stream size                              : 4.19 GiB (14%)
    Language                                 : English
    Default                                  : Yes
    Forced                                   : No
    
    Audio #2
    ID                                       : 3
    Format                                   : AC-3
    Format/Info                              : Audio Coding 3
    Codec ID                                 : A_AC3
    Duration                                 : 2 h 11 min
    Bit rate mode                            : Constant
    Bit rate                                 : 640 kb/s
    Channel(s)                               : 6 channels
    Channel positions                        : Front: L C R, Side: L R, LFE
    Sampling rate                            : 48.0 kHz
    Frame rate                               : 31.250 FPS (1536 SPF)
    Bit depth                                : 16 bits
    Compression mode                         : Lossy
    Stream size                              : 602 MiB (2%)
    Language                                 : English
    Service kind                             : Complete Main
    Default                                  : No
    Forced                                   : No
    
    Text #1
    ID                                       : 4
    Format                                   : PGS
    Codec ID                                 : S_HDMV/PGS
    Codec ID/Info                            : Picture based subtitle format used on BDs/HD-DVDs
    Duration                                 : 1 h 58 min
    Bit rate                                 : 23.7 kb/s
    Count of elements                        : 2021
    Stream size                              : 20.2 MiB (0%)
    Language                                 : English
    Default                                  : Yes
    Forced                                   : No
    
    Text #2
    ID                                       : 5
    Format                                   : UTF-8
    Codec ID                                 : S_TEXT/UTF8
    Codec ID/Info                            : UTF-8 Plain Text
    Duration                                 : 1 h 58 min
    Bit rate                                 : 36 b/s
    Count of elements                        : 1009
    Stream size                              : 31.9 KiB (0%)
    Language                                 : English
    Default                                  : No
    Forced                                   : No
    Download:
     
  2. Loading...


Share This Page