Google Drive Van.Helsing.2004.PROPER.1080p.BluRay.DTS.x264-aNDy

Discussion in 'BDRip | 720p/1080p' started by DDLbase, Sep 23, 2020.

  1. DDLbase

    DDLbase Administrator Staff Member

    [​IMG]

    Rating: 6.1/10 based on 239,441 user ratings

    Genres: Action, Adventure, Fantasy

    The notorious monster hunter is sent to Transylvania to stop Count Dracula who is using Dr. Frankenstein’s research and a werewolf for some sinister purpose.

    [​IMG]
    Code:
    General
    Unique ID                   : 186507648523881026461227828477201347604 (0x8C5011071F80B1FEACCE61FD11A1F414)
    Complete name               : Van.Helsing.2004.PROPER.1080p.BluRay.DTS.x264-aNDy.mkv
    Format                      : Matroska
    Format version              : Version 2
    File size                   : 13.9 GiB
    Duration                    : 2 h 11 min
    Overall bit rate            : 15.2 Mb/s
    Encoded date                : UTC 2012-03-30 04:45:43
    Writing application         : mkvmerge v5.2.1 ('A Far Off Place') built on Jan  2 2012 23:21:10
    Writing library             : libebml v1.2.3 + libmatroska v1.3.0
    
    Video
    ID                          : 1
    Format                      : AVC
    Format/Info                 : Advanced Video Codec
    Format profile              : [email protected]
    Format settings             : CABAC / 4 Ref Frames
    Format settings, CABAC      : Yes
    Format settings, Reference  : 4 frames
    Muxing mode                 : Header stripping
    Codec ID                    : V_MPEG4/ISO/AVC
    Duration                    : 2 h 11 min
    Bit rate                    : 13.3 Mb/s
    Width                       : 1 920 pixels
    Height                      : 1 040 pixels
    Display aspect ratio        : 1.85:1
    Frame rate mode             : Constant
    Frame rate                  : 23.976 FPS
    Color space                 : YUV
    Chroma subsampling          : 4:2:0
    Bit depth                   : 8 bits
    Scan type                   : Progressive
    Bits/(Pixel*Frame)          : 0.279
    Stream size                 : 12.3 GiB (88%)
    Writing library             : x264 core 120 r2164 da19765
    Encoding settings           : cabac=1 / ref=4 / deblock=1:-3:-3 / analyse=0x3:0x133 / me=umh / subme=10 / psy=1 / psy_rd=1.00:0.00 / mixed_ref=1 / me_range=16 / chroma_me=1 / trellis=2 / 8x8dct=1 / cqm=0 / deadzone=21,11 / fast_pskip=0 / chroma_qp_offset=-2 / threads=6 / sliced_threads=0 / nr=0 / decimate=1 / interlaced=0 / bluray_compat=0 / constrained_intra=0 / bframes=7 / b_pyramid=2 / b_adapt=2 / b_bias=0 / direct=3 / weightb=1 / open_gop=0 / weightp=2 / keyint=240 / keyint_min=23 / scenecut=40 / intra_refresh=0 / rc=crf / mbtree=0 / crf=18.0 / qcomp=0.60 / qpmin=0 / qpmax=51 / qpstep=4 / ip_ratio=1.40 / pb_ratio=1.30 / aq=1:1.00
    Language                    : English
    Default                     : Yes
    Forced                      : No
    
    Audio
    ID                          : 2
    Format                      : DTS
    Format/Info                 : Digital Theater Systems
    Muxing mode                 : Header stripping
    Codec ID                    : A_DTS
    Duration                    : 2 h 11 min
    Bit rate mode               : Constant
    Bit rate                    : 1 509 kb/s
    Channel(s)                  : 6 channels
    Channel layout              : C L R Ls Rs LFE
    Sampling rate               : 48.0 kHz
    Frame rate                  : 93.750 FPS (512 SPF)
    Bit depth                   : 24 bits
    Compression mode            : Lossy
    Stream size                 : 1.39 GiB (10%)
    Language                    : English
    Default                     : Yes
    Forced                      : No
    Download:
     
  2. Loading...


Share This Page