Google Drive Venom 2018 BluRay 1080p TrueHD Atmos 7.1 AVC HYBRID REMUX-FraMeSToR

Discussion in 'BD REMUX | 1080p' started by DDLbase, Nov 8, 2019.

  1. DDLbase

    DDLbase Administrator Staff Member

    [​IMG]

    Venom (2018)

    [​IMG] 6.7/10
    [​IMG] 310,378

    Plot

    Venom is a 2018 American superhero film based on the Marvel Comics character of the same name, produced by Columbia Pictures in association with Marvel and Tencent Pictures. Distributed by Sony Pictures Releasing, it is the first film in Sony's Marvel Universe. Directed by Ruben Fleischer from a screenplay by Jeff Pinkner, Scott Rosenberg, and Kelly Marcel, it stars Tom Hardy as Eddie Brock / Venom, alongside Michelle Williams, Riz Ahmed, Scott Haze, and Reid Scott. In Venom, journalist Brock gains superpowers after being bound to an alien symbiote whose species plans to invade Earth.
    After Venom appeared in Spider-Man 3 (2007), Sony attempted to develop a spin-off film based on the character. Work began in March 2016 on a new version that would start a new shared universe featuring the Marvel characters that the studio possessed film rights to. Sony also intended for Venom to share the world of the Marvel Cinematic Universe's Spider-Man: Homecoming (2017), but ultimately distanced the film from Spider-Man. In March 2017, Rosenberg and Pinkner were set to write, with Fleischer and Hardy added in May. Filming took place from that October to January 2018, in Atlanta, New York City, and San Francisco. The film was primarily inspired by the comic book miniseries Venom: Lethal Protector (1993) and the story arc "Planet of the Symbiotes" (1995).
    Venom was released in the United States on October 5, 2018. It received generally negative reviews from critics for its script and lack of connection to Spider-Man, though Hardy's performance received some praise. However, the film was a box office success, becoming the seventh-highest-grossing film of 2018, with over $856 million worldwide, and set several box office records for an October release. A sequel, with Hardy reprising his role and Andy Serkis as director, is set to be released on October 2, 2020.

    Movie Info
    • Rating: PG-13
    • Genre: Action, Sci-Fi, Thriller
    • Directed By: Ruben Fleischer
    • Written By: Jeff Pinkner (screenplay by), Scott Rosenberg (screenplay by), Kelly Marcel (screenplay by), Jeff Pinkner (screen story by), Scott Rosenberg (screen story by), Todd McFarlane (Marvel's Venom Character created by), David Michelinie (Marvel's Venom Character created by)
    • Starring: Tom Hardy, Michelle Williams, Riz Ahmed, Scott Haze
    • Release Date: 05 Oct 2018
    • Runtime: 112 min
    • On Disk/Streaming: 18 Jun 2013
    • Box Office (USA): N/A
    • Awards: N/A
    • Studio: Vis
    [​IMG]
    Code:
    General
    Unique ID                                : 203902488981295687006468321956257407204 (0x996630E08DBB246E9C6A6B3C6DF520E4)
    Complete name                            : Venom.2018.BluRay.1080p.TrueHD.Atmos.7.1.AVC.HYBRID.REMUX-FraMeSToR.mkv
    Format                                   : Matroska
    Format version                           : Version 4 / Version 2
    File size                                : 26.7 GiB
    Duration                                 : 1 h 52 min
    Overall bit rate mode                    : Variable
    Overall bit rate                         : 34.0 Mb/s
    Movie name                               : Venom
    Encoded date                             : UTC 2018-12-10 00:03:50
    Writing application                      : mkvmerge v29.0.0 ('Like It Or Not') 64-bit
    Writing library                          : libebml v1.3.6 + libmatroska v1.4.9
    
    Video
    ID                                       : 1
    Format                                   : AVC
    Format/Info                              : Advanced Video Codec
    Format profile                           : [email protected]
    Format settings                          : CABAC / 2 Ref Frames
    Format settings, CABAC                   : Yes
    Format settings, ReFrames                : 2 frames
    Codec ID                                 : V_MPEG4/ISO/AVC
    Duration                                 : 1 h 52 min
    Bit rate mode                            : Variable
    Bit rate                                 : 30.0 Mb/s
    Width                                    : 1 920 pixels
    Height                                   : 1 080 pixels
    Display aspect ratio                     : 16:9
    Frame rate mode                          : Constant
    Frame rate                               : 23.976 (24000/1001) FPS
    Color space                              : YUV
    Chroma subsampling                       : 4:2:0
    Bit depth                                : 8 bits
    Scan type                                : Progressive
    Bits/(Pixel*Frame)                       : 0.603
    Stream size                              : 23.5 GiB (88%)
    Default                                  : Yes
    Forced                                   : No
    
    Audio #1
    ID                                       : 2
    Format                                   : TrueHD
    Format profile                           : TrueHD+Atmos / TrueHD
    Codec ID                                 : A_TRUEHD
    Duration                                 : 1 h 52 min
    Bit rate mode                            : Variable
    Bit rate                                 : 3 212 kb/s
    Maximum bit rate                         : 5 394 kb/s
    Channel(s)                               : Object Based / 8 channels
    Channel positions                        : Object Based / Front: L C R, Side: L R, Back: L R, LFE
    Sampling rate                            :  / 48.0 kHz
    Frame rate                               : 1 200.000 FPS (40 SPF)
    Compression mode                         : Lossless
    Stream size                              : 2.52 GiB (9%)
    Title                                    : TrueHD Atmos 7.1
    Language                                 : English
    Default                                  : Yes
    Forced                                   : No
    
    Audio #2
    ID                                       : 3
    Format                                   : AC-3
    Format/Info                              : Audio Coding 3
    Codec ID                                 : A_AC3
    Duration                                 : 1 h 52 min
    Bit rate mode                            : Constant
    Bit rate                                 : 640 kb/s
    Channel(s)                               : 6 channels
    Channel positions                        : Front: L C R, Side: L R, LFE
    Sampling rate                            : 48.0 kHz
    Frame rate                               : 31.250 FPS (1536 SPF)
    Bit depth                                : 16 bits
    Compression mode                         : Lossy
    Stream size                              : 513 MiB (2%)
    Title                                    : AC3 5.1
    Language                                 : English
    Service kind                             : Complete Main
    Default                                  : No
    Forced                                   : No
    
    Text #1
    ID                                       : 4
    Format                                   : PGS
    Codec ID                                 : S_HDMV/PGS
    Codec ID/Info                            : Picture based subtitle format used on BDs/HD-DVDs
    Duration                                 : 1 h 49 min
    Bit rate                                 : 32.7 kb/s
    Count of elements                        : 2707
    Stream size                              : 25.5 MiB (0%)
    Title                                    : English
    Language                                 : English
    Default                                  : No
    Forced                                   : No
    
    Text #2
    ID                                       : 5
    Format                                   : PGS
    Codec ID                                 : S_HDMV/PGS
    Codec ID/Info                            : Picture based subtitle format used on BDs/HD-DVDs
    Duration                                 : 1 h 49 min
    Bit rate                                 : 44.9 kb/s
    Count of elements                        : 3663
    Stream size                              : 35.1 MiB (0%)
    Title                                    : English (SDH)
    Language                                 : English
    Default                                  : No
    Forced                                   : No
    
    Text #3
    ID                                       : 6
    Format                                   : PGS
    Codec ID                                 : S_HDMV/PGS
    Codec ID/Info                            : Picture based subtitle format used on BDs/HD-DVDs
    Duration                                 : 1 h 50 min
    Bit rate                                 : 26.2 kb/s
    Count of elements                        : 2400
    Stream size                              : 20.8 MiB (0%)
    Title                                    : French
    Language                                 : French
    Default                                  : No
    Forced                                   : No
    
    Text #4
    ID                                       : 7
    Format                                   : PGS
    Codec ID                                 : S_HDMV/PGS
    Codec ID/Info                            : Picture based subtitle format used on BDs/HD-DVDs
    Duration                                 : 1 h 50 min
    Bit rate                                 : 27.7 kb/s
    Count of elements                        : 2375
    Stream size                              : 21.9 MiB (0%)
    Title                                    : Spanish (Latin American)
    Language                                 : Spanish
    Default                                  : No
    Forced                                   : No
    
    Menu
    00:00:00.000                             : en:Chapter 01
    00:04:43.200                             : en:Chapter 02
    00:10:58.074                             : en:Chapter 03
    00:17:34.929                             : en:Chapter 04
    00:24:05.486                             : en:Chapter 05
    00:32:18.812                             : en:Chapter 06
    00:40:07.447                             : en:Chapter 07
    00:46:51.976                             : en:Chapter 08
    00:53:26.203                             : en:Chapter 09
    01:00:57.070                             : en:Chapter 10
    01:04:01.796                             : en:Chapter 11
    01:08:36.446                             : en:Chapter 12
    01:11:12.852                             : en:Chapter 13
    01:14:15.743                             : en:Chapter 14
    01:21:18.749                             : en:Chapter 15
    01:27:15.021                             : en:Chapter 16
    Download:
     
  2. Loading...


Share This Page