Google Drive Viena.and.the.Fantomes.2020.1080p.WEB-DL.H264.AC3-EVO

Discussion in 'Web-DL / Webrip | 1080p' started by DDLbase, Jun 29, 2020.

  1. DDLbase

    DDLbase Administrator Staff Member

    [​IMG]

    Genres: Drama, Music, Romance

    A roadie travels across North America with a punk band during the 1980s.

    [​IMG]
    Code:
    General
    Unique ID                   : 196432252865273864905824997386966711177 (0x93C779CCF55C7610B1D6CA96544ABB89)
    Complete name               : Viena.and.the.Fantomes.2020.1080p.WEB-DL.H264.AC3-EVO.mkv
    Format                      : Matroska
    Format version              : Version 4
    File size                   : 3.22 GiB
    Duration                    : 1 h 32 min
    Overall bit rate            : 4 958 kb/s
    Encoded date                : UTC 2020-06-29 14:13:35
    Writing application         : mkvmerge v6.7.0 ('Back to the Ground') 64bit built on Jan  8 2014 15:10:52
    Writing library             : libebml v1.3.0 + libmatroska v1.4.1
    
    Video
    ID                          : 2
    Format                      : AVC
    Format/Info                 : Advanced Video Codec
    Format profile              : [email protected]
    Format settings             : CABAC / 5 Ref Frames
    Format settings, CABAC      : Yes
    Format settings, Reference  : 5 frames
    Codec ID                    : V_MPEG4/ISO/AVC
    Duration                    : 1 h 32 min
    Bit rate                    : 4 475 kb/s
    Width                       : 1 908 pixels
    Height                      : 808 pixels
    Display aspect ratio        : 2.35:1
    Frame rate mode             : Constant
    Frame rate                  : 23.976 (24000/1001) FPS
    Color space                 : YUV
    Chroma subsampling          : 4:2:0
    Bit depth                   : 8 bits
    Scan type                   : Progressive
    Bits/(Pixel*Frame)          : 0.121
    Stream size                 : 2.91 GiB (90%)
    Language                    : English
    Default                     : Yes
    Forced                      : No
    Color range                 : Limited
    Color primaries             : BT.709
    Transfer characteristics    : BT.709
    Matrix coefficients         : BT.709
    
    Audio
    ID                          : 1
    Format                      : AC-3
    Format/Info                 : Audio Coding 3
    Commercial name             : Dolby Digital
    Codec ID                    : A_AC3
    Duration                    : 1 h 32 min
    Bit rate mode               : Constant
    Bit rate                    : 384 kb/s
    Channel(s)                  : 6 channels
    Channel layout              : L R C LFE Ls Rs
    Sampling rate               : 48.0 kHz
    Frame rate                  : 31.250 FPS (1536 SPF)
    Compression mode            : Lossy
    Stream size                 : 255 MiB (8%)
    Language                    : English
    Service kind                : Complete Main
    Default                     : Yes
    Forced                      : No
    
    Menu
    00:00:00.000                : en:1
    00:08:37.000                : en:2
    00:18:02.000                : en:3
    00:28:21.000                : en:4
    00:38:45.000                : en:5
    00:47:37.000                : en:6
    00:57:16.000                : en:7
    01:07:15.000                : en:8
    01:17:51.000                : en:9
    01:28:39.000                : en:10
    Download - Mirror 1:
    Download - Mirror 2:
     

Share This Page