Google Drive Voyagers.2021.2160p.AMZN.WEB-DL.DDP5.1.HDR.HEVC-EVO

Discussion in 'Web-DL / Webrip | 4K' started by DDLbase, Apr 30, 2021.

  1. DDLbase

    DDLbase Administrator Staff Member

    [​IMG]

    Rating: 5.4/10 based on 1,024 user ratings

    Genres: Adventure, Sci-Fi, Thriller

    A crew of astronauts on a multi-generational mission descend into paranoia and madness, not knowing what is real or not.

    [​IMG]
    Code:
    General
    Unique ID                   : 141833141080432199586297028152702707949 (0x6AB411C1023FE67AB2A052FCA36AA8ED)
    Complete name               : Voyagers.2021.2160p.AMZN.WEB-DL.DDP5.1.HDR.HEVC-EVO.mkv
    Format                      : Matroska
    Format version              : Version 4
    File size                   : 11.3 GiB
    Duration                    : 1 h 47 min
    Overall bit rate            : 15.0 Mb/s
    Movie name                  : EVO
    Encoded date                : UTC 2021-04-29 22:38:46
    Writing application         : mkvmerge v49.0.0 ('Sick Of Losing Soulmates') 64-bit
    Writing library             : libebml v1.4.0 + libmatroska v1.6.1
    
    Video
    ID                          : 1
    Format                      : HEVC
    Format/Info                 : High Efficiency Video Coding
    Format profile              : Main [email protected]@Main
    HDR format                  : SMPTE ST 2094 App 4, Version 1, HDR10+ Profile B compatible
    Codec ID                    : V_MPEGH/ISO/HEVC
    Duration                    : 1 h 47 min
    Bit rate                    : 14.4 Mb/s
    Width                       : 3 840 pixels
    Height                      : 1 600 pixels
    Display aspect ratio        : 2.40:1
    Frame rate mode             : Constant
    Frame rate                  : 23.976 (24000/1001) FPS
    Color space                 : YUV
    Chroma subsampling          : 4:2:0
    Bit depth                   : 10 bits
    Bits/(Pixel*Frame)          : 0.098
    Stream size                 : 10.9 GiB (96%)
    Default                     : Yes
    Forced                      : No
    Color range                 : Limited
    Color primaries             : BT.2020
    Transfer characteristics    : PQ
    Matrix coefficients         : BT.2020 non-constant
    Mastering display color pri : Display P3
    Mastering display luminance : min: 0.0050 cd/m2, max: 1000 cd/m2
    Maximum Content Light Level : 1000 cd/m2
    Maximum Frame-Average Light : 383 cd/m2
    
    Audio
    ID                          : 2
    Format                      : E-AC-3
    Format/Info                 : Enhanced AC-3
    Commercial name             : Dolby Digital Plus
    Codec ID                    : A_EAC3
    Duration                    : 1 h 47 min
    Bit rate mode               : Constant
    Bit rate                    : 640 kb/s
    Channel(s)                  : 6 channels
    Channel layout              : L R C LFE Ls Rs
    Sampling rate               : 48.0 kHz
    Frame rate                  : 31.250 FPS (1536 SPF)
    Compression mode            : Lossy
    Stream size                 : 494 MiB (4%)
    Language                    : English
    Service kind                : Complete Main
    Default                     : No
    Forced                      : No
    Download - Mirror 1:
    Download - Mirror 2:
     
  2. Loading...


Share This Page