Google Drive War.of.the.Worlds.2005.UHD.BluRay.2160p.TrueHD.Atmos.7.1.HEVC.REMUX-FraMeSToR

Discussion in 'BD REMUX | 4K' started by DDLbase, May 17, 2020.

  1. DDLbase

    DDLbase Administrator Staff Member

    [​IMG]

    Rating: 6.5/10 based on 404,192 user ratings

    Genres: Adventure, Sci-Fi, Thriller

    As Earth is invaded by alien tripod fighting machines, one family fights for survival in this sci-fi action film.

    [​IMG]
    Code:
    General
    Unique ID                   : 111734498765903059722580726431586931990 (0x540F481D7445352DC1755B65F0535516)
    Complete name               : War.of.the.Worlds.2005.UHD.BluRay.2160p.TrueHD.Atmos.7.1.HEVC.REMUX-FraMeSToR.mkv
    Format                      : Matroska
    Format version              : Version 4
    File size                   : 46.2 GiB
    Duration                    : 1 h 56 min
    Overall bit rate mode       : Variable
    Overall bit rate            : 56.8 Mb/s
    Movie name                  : War of the Worlds 4K
    Encoded date                : UTC 2020-05-16 22:22:30
    Writing application         : mkvmerge v46.0.0 ('No Deeper Escape') 64-bit
    Writing library             : libebml v1.3.10 + libmatroska v1.5.2
    IMDB                        : tt0407304
    TMDB                        : movie/74
    
    Video
    ID                          : 1
    Format                      : HEVC
    Format/Info                 : High Efficiency Video Coding
    Format profile              : Main [email protected]@High
    HDR format                  : SMPTE ST 2086, HDR10 compatible
    Codec ID                    : V_MPEGH/ISO/HEVC
    Duration                    : 1 h 56 min
    Bit rate                    : 51.0 Mb/s
    Width                       : 3 840 pixels
    Height                      : 2 160 pixels
    Display aspect ratio        : 16:9
    Frame rate mode             : Constant
    Frame rate                  : 23.976 (24000/1001) FPS
    Color space                 : YUV
    Chroma subsampling          : 4:2:0 (Type 2)
    Bit depth                   : 10 bits
    Bits/(Pixel*Frame)          : 0.257
    Stream size                 : 41.5 GiB (90%)
    Default                     : Yes
    Forced                      : No
    Color range                 : Limited
    Color primaries             : BT.2020
    Transfer characteristics    : PQ
    Matrix coefficients         : BT.2020 non-constant
    Mastering display color pri : Display P3
    Mastering display luminance : min: 0.0001 cd/m2, max: 1000 cd/m2
    Maximum Content Light Level : 993 cd/m2
    Maximum Frame-Average Light : 419 cd/m2
    
    Audio #1
    ID                          : 2
    Format                      : MLP FBA 16-ch
    Format/Info                 : Meridian Lossless Packing FBA with 16-channel presentation
    Commercial name             : Dolby TrueHD with Dolby Atmos
    Codec ID                    : A_TRUEHD
    Duration                    : 1 h 56 min
    Bit rate mode               : Variable
    Bit rate                    : 4 432 kb/s
    Maximum bit rate            : 6 816 kb/s
    Channel(s)                  : 8 channels
    Channel layout              : L R C LFE Ls Rs Lb Rb
    Sampling rate               : 48.0 kHz
    Frame rate                  : 1 200.000 FPS (40 SPF)
    Compression mode            : Lossless
    Stream size                 : 3.61 GiB (8%)
    Title                       : TrueHD Atmos 7.1
    Language                    : English
    Default                     : Yes
    Forced                      : No
    Number of dynamic objects   : 11
    Bed channel count           : 1 channel
    Bed channel configuration   : LFE
    
    Audio #2
    ID                          : 3
    Format                      : AC-3
    Format/Info                 : Audio Coding 3
    Commercial name             : Dolby Digital
    Codec ID                    : A_AC3
    Duration                    : 1 h 56 min
    Bit rate mode               : Constant
    Bit rate                    : 640 kb/s
    Channel(s)                  : 6 channels
    Channel layout              : L R C LFE Ls Rs
    Sampling rate               : 48.0 kHz
    Frame rate                  : 31.250 FPS (1536 SPF)
    Compression mode            : Lossy
    Stream size                 : 533 MiB (1%)
    Title                       : AC3 5.1-EX
    Language                    : English
    Service kind                : Complete Main
    Default                     : No
    Forced                      : No
    
    Text #1
    ID                          : 4
    Format                      : PGS
    Codec ID                    : S_HDMV/PGS
    Codec ID/Info               : Picture based subtitle format used on BDs/HD-DVDs
    Duration                    : 1 h 48 min
    Bit rate                    : 29.4 kb/s
    Count of elements           : 2238
    Stream size                 : 22.8 MiB (0%)
    Title                       : English
    Language                    : English
    Default                     : No
    Forced                      : No
    
    Text #2
    ID                          : 5
    Format                      : PGS
    Codec ID                    : S_HDMV/PGS
    Codec ID/Info               : Picture based subtitle format used on BDs/HD-DVDs
    Duration                    : 1 h 48 min
    Bit rate                    : 32.2 kb/s
    Count of elements           : 2448
    Stream size                 : 24.9 MiB (0%)
    Title                       : English (SDH)
    Language                    : English
    Default                     : No
    Forced                      : No
    
    Text #3
    ID                          : 6
    Format                      : PGS
    Codec ID                    : S_HDMV/PGS
    Codec ID/Info               : Picture based subtitle format used on BDs/HD-DVDs
    Duration                    : 1 h 55 min
    Bit rate                    : 17.6 kb/s
    Count of elements           : 2250
    Stream size                 : 14.5 MiB (0%)
    Title                       : Chinese (Cantonese)
    Language                    : Chinese
    Default                     : No
    Forced                      : No
    
    Text #4
    ID                          : 7
    Format                      : PGS
    Codec ID                    : S_HDMV/PGS
    Codec ID/Info               : Picture based subtitle format used on BDs/HD-DVDs
    Duration                    : 1 h 55 min
    Bit rate                    : 22.0 kb/s
    Count of elements           : 2208
    Stream size                 : 18.1 MiB (0%)
    Title                       : Chinese (Mandarin Simplified)
    Language                    : Chinese
    Default                     : No
    Forced                      : No
    
    Text #5
    ID                          : 8
    Format                      : PGS
    Codec ID                    : S_HDMV/PGS
    Codec ID/Info               : Picture based subtitle format used on BDs/HD-DVDs
    Duration                    : 1 h 55 min
    Bit rate                    : 18.8 kb/s
    Count of elements           : 2246
    Stream size                 : 15.4 MiB (0%)
    Title                       : Chinese (Mandarin Traditional)
    Language                    : Chinese
    Default                     : No
    Forced                      : No
    
    Text #6
    ID                          : 9
    Format                      : PGS
    Codec ID                    : S_HDMV/PGS
    Codec ID/Info               : Picture based subtitle format used on BDs/HD-DVDs
    Duration                    : 1 h 55 min
    Bit rate                    : 22.3 kb/s
    Count of elements           : 2134
    Stream size                 : 18.3 MiB (0%)
    Title                       : Czech
    Language                    : Czech
    Default                     : No
    Forced                      : No
    
    Text #7
    ID                          : 10
    Format                      : PGS
    Codec ID                    : S_HDMV/PGS
    Codec ID/Info               : Picture based subtitle format used on BDs/HD-DVDs
    Duration                    : 1 h 55 min
    Bit rate                    : 19.1 kb/s
    Count of elements           : 1476
    Stream size                 : 15.7 MiB (0%)
    Title                       : Danish
    Language                    : Danish
    Default                     : No
    Forced                      : No
    
    Text #8
    ID                          : 11
    Format                      : PGS
    Codec ID                    : S_HDMV/PGS
    Codec ID/Info               : Picture based subtitle format used on BDs/HD-DVDs
    Duration                    : 1 h 55 min
    Bit rate                    : 15.9 kb/s
    Count of elements           : 1444
    Stream size                 : 13.1 MiB (0%)
    Title                       : Dutch
    Language                    : Dutch
    Default                     : No
    Forced                      : No
    
    Text #9
    ID                          : 12
    Format                      : PGS
    Codec ID                    : S_HDMV/PGS
    Codec ID/Info               : Picture based subtitle format used on BDs/HD-DVDs
    Duration                    : 1 h 55 min
    Bit rate                    : 20.0 kb/s
    Count of elements           : 1756
    Stream size                 : 16.5 MiB (0%)
    Title                       : Finnish
    Language                    : Finnish
    Default                     : No
    Forced                      : No
    
    Text #10
    ID                          : 13
    Format                      : PGS
    Codec ID                    : S_HDMV/PGS
    Codec ID/Info               : Picture based subtitle format used on BDs/HD-DVDs
    Duration                    : 1 h 48 min
    Bit rate                    : 18.8 kb/s
    Count of elements           : 1690
    Stream size                 : 14.6 MiB (0%)
    Title                       : French
    Language                    : French
    Default                     : No
    Forced                      : No
    
    Text #11
    ID                          : 14
    Format                      : PGS
    Codec ID                    : S_HDMV/PGS
    Codec ID/Info               : Picture based subtitle format used on BDs/HD-DVDs
    Duration                    : 1 h 55 min
    Bit rate                    : 26.7 kb/s
    Count of elements           : 2258
    Stream size                 : 22.0 MiB (0%)
    Title                       : German
    Language                    : German
    Default                     : No
    Forced                      : No
    
    Text #12
    ID                          : 15
    Format                      : PGS
    Codec ID                    : S_HDMV/PGS
    Codec ID/Info               : Picture based subtitle format used on BDs/HD-DVDs
    Duration                    : 1 h 55 min
    Bit rate                    : 26.7 kb/s
    Count of elements           : 2032
    Stream size                 : 21.9 MiB (0%)
    Title                       : Greek
    Language                    : Greek
    Default                     : No
    Forced                      : No
    
    Text #13
    ID                          : 16
    Format                      : PGS
    Codec ID                    : S_HDMV/PGS
    Codec ID/Info               : Picture based subtitle format used on BDs/HD-DVDs
    Duration                    : 1 h 55 min
    Bit rate                    : 19.6 kb/s
    Count of elements           : 2232
    Stream size                 : 16.1 MiB (0%)
    Title                       : Hindi
    Language                    : Hindi
    Default                     : No
    Forced                      : No
    
    Text #14
    ID                          : 17
    Format                      : PGS
    Codec ID                    : S_HDMV/PGS
    Codec ID/Info               : Picture based subtitle format used on BDs/HD-DVDs
    Duration                    : 1 h 55 min
    Bit rate                    : 26.5 kb/s
    Count of elements           : 2204
    Stream size                 : 21.8 MiB (0%)
    Title                       : Hungarian
    Language                    : Hungarian
    Default                     : No
    Forced                      : No
    
    Text #15
    ID                          : 18
    Format                      : PGS
    Codec ID                    : S_HDMV/PGS
    Codec ID/Info               : Picture based subtitle format used on BDs/HD-DVDs
    Duration                    : 1 h 55 min
    Bit rate                    : 25.7 kb/s
    Count of elements           : 2220
    Stream size                 : 21.1 MiB (0%)
    Title                       : Indonesian
    Language                    : Indonesian
    Default                     : No
    Forced                      : No
    
    Text #16
    ID                          : 19
    Format                      : PGS
    Codec ID                    : S_HDMV/PGS
    Codec ID/Info               : Picture based subtitle format used on BDs/HD-DVDs
    Duration                    : 1 h 55 min
    Bit rate                    : 25.7 kb/s
    Count of elements           : 2206
    Stream size                 : 21.1 MiB (0%)
    Title                       : Italian
    Language                    : Italian
    Default                     : No
    Forced                      : No
    
    Text #17
    ID                          : 20
    Format                      : PGS
    Codec ID                    : S_HDMV/PGS
    Codec ID/Info               : Picture based subtitle format used on BDs/HD-DVDs
    Duration                    : 1 h 48 min
    Bit rate                    : 16.3 kb/s
    Count of elements           : 1740
    Stream size                 : 12.6 MiB (0%)
    Title                       : Japanese
    Language                    : Japanese
    Default                     : No
    Forced                      : No
    
    Text #18
    ID                          : 21
    Format                      : PGS
    Codec ID                    : S_HDMV/PGS
    Codec ID/Info               : Picture based subtitle format used on BDs/HD-DVDs
    Duration                    : 1 h 55 min
    Bit rate                    : 11.3 kb/s
    Count of elements           : 2100
    Stream size                 : 9.27 MiB (0%)
    Title                       : Korean
    Language                    : Korean
    Default                     : No
    Forced                      : No
    
    Text #19
    ID                          : 22
    Format                      : PGS
    Codec ID                    : S_HDMV/PGS
    Codec ID/Info               : Picture based subtitle format used on BDs/HD-DVDs
    Duration                    : 1 h 55 min
    Bit rate                    : 27.4 kb/s
    Count of elements           : 2230
    Stream size                 : 22.5 MiB (0%)
    Title                       : Malay
    Language                    : Malay
    Default                     : No
    Forced                      : No
    
    Text #20
    ID                          : 23
    Format                      : PGS
    Codec ID                    : S_HDMV/PGS
    Codec ID/Info               : Picture based subtitle format used on BDs/HD-DVDs
    Duration                    : 1 h 55 min
    Bit rate                    : 17.3 kb/s
    Count of elements           : 1786
    Stream size                 : 14.3 MiB (0%)
    Title                       : Norwegian
    Language                    : Norwegian
    Default                     : No
    Forced                      : No
    
    Text #21
    ID                          : 24
    Format                      : PGS
    Codec ID                    : S_HDMV/PGS
    Codec ID/Info               : Picture based subtitle format used on BDs/HD-DVDs
    Duration                    : 1 h 55 min
    Bit rate                    : 23.7 kb/s
    Count of elements           : 2190
    Stream size                 : 19.5 MiB (0%)
    Title                       : Polish
    Language                    : Polish
    Default                     : No
    Forced                      : No
    
    Text #22
    ID                          : 25
    Format                      : PGS
    Codec ID                    : S_HDMV/PGS
    Codec ID/Info               : Picture based subtitle format used on BDs/HD-DVDs
    Duration                    : 1 h 49 min
    Bit rate                    : 22.7 kb/s
    Count of elements           : 2026
    Stream size                 : 17.7 MiB (0%)
    Title                       : Portuguese (Brazilian)
    Language                    : Portuguese
    Default                     : No
    Forced                      : No
    
    Text #23
    ID                          : 26
    Format                      : PGS
    Codec ID                    : S_HDMV/PGS
    Codec ID/Info               : Picture based subtitle format used on BDs/HD-DVDs
    Duration                    : 1 h 55 min
    Bit rate                    : 25.0 kb/s
    Count of elements           : 2212
    Stream size                 : 20.6 MiB (0%)
    Title                       : Romanian
    Language                    : Romanian
    Default                     : No
    Forced                      : No
    
    Text #24
    ID                          : 27
    Format                      : PGS
    Codec ID                    : S_HDMV/PGS
    Codec ID/Info               : Picture based subtitle format used on BDs/HD-DVDs
    Duration                    : 1 h 55 min
    Bit rate                    : 28.4 kb/s
    Count of elements           : 2218
    Stream size                 : 23.4 MiB (0%)
    Title                       : Russian
    Language                    : Russian
    Default                     : No
    Forced                      : No
    
    Text #25
    ID                          : 28
    Format                      : PGS
    Codec ID                    : S_HDMV/PGS
    Codec ID/Info               : Picture based subtitle format used on BDs/HD-DVDs
    Duration                    : 1 h 55 min
    Bit rate                    : 24.2 kb/s
    Count of elements           : 2250
    Stream size                 : 19.9 MiB (0%)
    Title                       : Spanish (Castilian)
    Language                    : Spanish
    Default                     : No
    Forced                      : No
    
    Text #26
    ID                          : 29
    Format                      : PGS
    Codec ID                    : S_HDMV/PGS
    Codec ID/Info               : Picture based subtitle format used on BDs/HD-DVDs
    Duration                    : 1 h 49 min
    Bit rate                    : 24.4 kb/s
    Count of elements           : 2144
    Stream size                 : 19.0 MiB (0%)
    Title                       : Spanish (Latin American)
    Language                    : Spanish
    Default                     : No
    Forced                      : No
    
    Text #27
    ID                          : 30
    Format                      : PGS
    Codec ID                    : S_HDMV/PGS
    Codec ID/Info               : Picture based subtitle format used on BDs/HD-DVDs
    Duration                    : 1 h 55 min
    Bit rate                    : 20.4 kb/s
    Count of elements           : 1638
    Stream size                 : 16.8 MiB (0%)
    Title                       : Swedish
    Language                    : Swedish
    Default                     : No
    Forced                      : No
    
    Text #28
    ID                          : 31
    Format                      : PGS
    Codec ID                    : S_HDMV/PGS
    Codec ID/Info               : Picture based subtitle format used on BDs/HD-DVDs
    Duration                    : 1 h 55 min
    Bit rate                    : 16.3 kb/s
    Count of elements           : 2162
    Stream size                 : 13.4 MiB (0%)
    Title                       : Thai
    Language                    : Thai
    Default                     : No
    Forced                      : No
    
    Menu
    00:00:00.000                : en:Earth Under Man
    00:04:16.006                : en:Eve Of The War
    00:08:18.248                : en:Coming Of The Invaders
    00:13:17.380                : en:In The Storm
    00:19:19.867                : en:The Machine Emerges
    00:25:29.319                : en:Heat-Ray
    00:29:45.242                : en:Escape
    00:34:32.570                : en:How We Reached Home
    00:38:47.033                : en:At The Window
    00:43:53.256                : en:Human Toll
    00:49:03.732                : en:Worst Of Man
    00:55:17.105                : en:Exodus
    00:59:21.016                : en:Hudson Ferry
    01:04:44.172                : en:The Fighting Begins
    01:10:37.233                : en:Harlan Ogilvy
    01:15:53.299                : en:Disturbing Revelations
    01:20:28.991                : en:Stillness
    01:24:48.000                : en:Days Of Imprisonment
    01:29:03.964                : en:Alone With Harlan
    01:33:59.884                : en:Under Foot
    01:36:59.605                : en:Earth Under Them
    01:41:07.561                : en:In Boston
    01:45:27.404                : en:Wreckage
    01:49:42.034                : en:End Credits
    Download:
     
  2. Loading...


Share This Page