Google Drive WarGames.1983.1080p.BluRay.X264-AMIABLE

Discussion in 'BDRip | 720p/1080p' started by DDLbase, Jan 31, 2021.

  1. DDLbase

    DDLbase Administrator Staff Member

    [​IMG]

    Rating: 7.1/10 based on 90,988 user ratings

    Genres: Action, Adventure, Drama, Sci-Fi, Thriller

    A young man finds a back door into a military central computer in which reality is confused with game-playing, possibly starting World War III.

    [​IMG]
    Code:
    General
    Complete name               : WarGames.1983.1080p.BluRay.X264-AMIABLE.mkv
    Format                      : Matroska
    Format version              : Version 2
    File size                   : 7.65 GiB
    Duration                    : 1 h 52 min
    Overall bit rate            : 9 715 kb/s
    Writing application         : mkvmerge v4.1.1 ('Bouncin' Back') built on Jul  3 2010 22:54:08
    Writing library             : libebml v1.0.0 + libmatroska v1.0
    
    Video
    ID                          : 1
    Format                      : AVC
    Format/Info                 : Advanced Video Codec
    Format profile              : [email protected]
    Format settings             : CABAC / 4 Ref Frames
    Format settings, CABAC      : Yes
    Format settings, Reference  : 4 frames
    Codec ID                    : V_MPEG4/ISO/AVC
    Duration                    : 1 h 52 min
    Bit rate                    : 8 950 kb/s
    Width                       : 1 920 pixels
    Height                      : 1 040 pixels
    Display aspect ratio        : 1.85:1
    Frame rate mode             : Constant
    Frame rate                  : 23.976 (24000/1001) FPS
    Color space                 : YUV
    Chroma subsampling          : 4:2:0
    Bit depth                   : 8 bits
    Scan type                   : Progressive
    Bits/(Pixel*Frame)          : 0.187
    Stream size                 : 6.89 GiB (90%)
    Writing library             : x264 core 125 r2200 999b753
    Encoding settings           : cabac=1 / ref=4 / deblock=1:0:0 / analyse=0x3:0x113 / me=umh / subme=8 / psy=1 / psy_rd=1.00:0.00 / mixed_ref=1 / me_range=16 / chroma_me=1 / trellis=1 / 8x8dct=1 / cqm=0 / deadzone=21,11 / fast_pskip=1 / chroma_qp_offset=-2 / threads=12 / lookahead_threads=2 / sliced_threads=0 / nr=0 / decimate=1 / interlaced=0 / bluray_compat=0 / constrained_intra=0 / bframes=3 / b_pyramid=2 / b_adapt=2 / b_bias=0 / direct=3 / weightb=1 / open_gop=0 / weightp=2 / keyint=240 / keyint_min=24 / scenecut=40 / intra_refresh=0 / rc_lookahead=50 / rc=2pass / mbtree=1 / bitrate=8950 / ratetol=1.0 / qcomp=0.60 / qpmin=0 / qpmax=69 / qpstep=4 / cplxblur=20.0 / qblur=0.5 / ip_ratio=1.40 / aq=1:1.00
    Language                    : English
    Default                     : Yes
    Forced                      : No
    
    Audio
    ID                          : 2
    Format                      : DTS
    Format/Info                 : Digital Theater Systems
    Codec ID                    : A_DTS
    Duration                    : 1 h 52 min
    Bit rate mode               : Constant
    Bit rate                    : 768 kb/s
    Channel(s)                  : 6 channels
    Channel layout              : C L R Ls Rs LFE
    Sampling rate               : 48.0 kHz
    Frame rate                  : 93.750 FPS (512 SPF)
    Bit depth                   : 24 bits
    Compression mode            : Lossy
    Stream size                 : 619 MiB (8%)
    Language                    : English
    Default                     : Yes
    Forced                      : No
    
    Text
    ID                          : 3
    Format                      : UTF-8
    Codec ID                    : S_TEXT/UTF8
    Codec ID/Info               : UTF-8 Plain Text
    Language                    : English
    Default                     : No
    Forced                      : No
    
    Menu
    00:00:00.000                : en:00:00:00.000
    00:06:25.885                : en:00:06:25.885
    00:09:31.070                : en:00:09:31.070
    00:12:10.813                : en:00:12:10.813
    00:14:04.677                : en:00:14:04.677
    00:17:32.009                : en:00:17:32.009
    00:22:33.310                : en:00:22:33.310
    00:23:20.357                : en:00:23:20.357
    00:26:01.018                : en:00:26:01.018
    00:30:57.439                : en:00:30:57.439
    00:35:40.555                : en:00:35:40.555
    00:41:29.028                : en:00:41:29.028
    00:44:30.835                : en:00:44:30.835
    00:46:30.579                : en:00:46:30.579
    00:49:42.563                : en:00:49:42.563
    00:51:01.225                : en:00:51:01.225
    00:53:22.950                : en:00:53:22.950
    00:56:02.609                : en:00:56:02.609
    00:59:32.027                : en:00:59:32.027
    01:03:12.580                : en:01:03:12.580
    01:08:24.851                : en:01:08:24.851
    01:15:30.025                : en:01:15:30.025
    01:19:19.797                : en:01:19:19.797
    01:21:17.039                : en:01:21:17.039
    01:26:24.513                : en:01:26:24.513
    01:30:04.899                : en:01:30:04.899
    01:33:28.978                : en:01:33:28.978
    01:38:56.013                : en:01:38:56.013
    01:41:59.488                : en:01:41:59.488
    01:44:05.239                : en:01:44:05.239
    01:46:24.837                : en:01:46:24.837
    01:49:38.655                : en:01:49:38.655
    Download - Mirror 1:
    Download - Mirror 2:
     
  2. Loading...


Share This Page