Google Drive Warriors.of.Future.2022.1080p.NF.WEB-DL.DUAL.DDP5.1.H.264-SMURF

Discussion in 'Web-DL / Webrip | 1080p' started by DDLbase, Dec 3, 2022.

  1. DDLbase

    DDLbase Administrator Staff Member

    [​IMG]

    Rating: 6.0/10 based on 1,208 user ratings

    Genres: Action, Adventure, Sci-Fi

    A meteorite brings an extraterrestrial life to the earth. When powerful alien creatures threaten humanity, Commander Sing Lee's elite forces are almost wiped out, and the surviving soldier Tai Loi discovers an even bigger conspiracy.

    [​IMG]
    Code:
    General
    Unique ID                   : 62129389559175826642473448153770210745 (0x2EBDAF67D0D0BE0A70E9EBDD6111B5B9)
    Complete name               : Warriors.of.Future.2022.1080p.NF.WEB-DL.DUAL.DDP5.1.H.264-SMURF.mkv
    Format                      : Matroska
    Format version              : Version 4
    File size                   : 4.42 GiB
    Duration                    : 1 h 41 min
    Overall bit rate mode       : Variable
    Overall bit rate            : 6 243 kb/s
    Writing application         : mkvmerge v72.0.0 ('Minuano (Six-eight)') 64-bit
    Writing library             : libebml v1.4.4 + libmatroska v1.7.1
    
    Video
    ID                          : 1
    Format                      : AVC
    Format/Info                 : Advanced Video Codec
    Format profile              : [email protected]
    Format settings             : CABAC / 3 Ref Frames
    Format settings, CABAC      : Yes
    Format settings, Reference  : 3 frames
    Codec ID                    : V_MPEG4/ISO/AVC
    Duration                    : 1 h 41 min
    Bit rate mode               : Variable
    Bit rate                    : 5 000 kb/s
    Maximum bit rate            : 7 500 kb/s
    Width                       : 1 920 pixels
    Height                      : 1 080 pixels
    Display aspect ratio        : 16:9
    Frame rate mode             : Constant
    Frame rate                  : 24.000 FPS
    Color space                 : YUV
    Chroma subsampling          : 4:2:0
    Bit depth                   : 8 bits
    Scan type                   : Progressive
    Bits/(Pixel*Frame)          : 0.100
    Stream size                 : 3.51 GiB (79%)
    Writing library             : x264 core 148 r2727 7d026e8
    Encoding settings           : cabac=1 / ref=3 / deblock=1:0:0 / analyse=0x1:0x111 / me=umh / subme=10 / psy=1 / psy_rd=1.00:0.00 / mixed_ref=1 / me_range=24 / chroma_me=1 / trellis=2 / 8x8dct=0 / cqm=0 / deadzone=21,11 / fast_pskip=1 / chroma_qp_offset=-2 / threads=8 / lookahead_threads=1 / sliced_threads=0 / nr=0 / decimate=1 / interlaced=0 / bluray_compat=0 / stitchable=1 / constrained_intra=0 / bframes=2 / b_pyramid=0 / b_adapt=2 / b_bias=0 / direct=3 / weightb=1 / open_gop=0 / weightp=2 / keyint=48 / keyint_min=25 / scenecut=0 / intra_refresh=0 / rc_lookahead=48 / rc=2pass / mbtree=1 / bitrate=5000 / ratetol=1.0 / qcomp=0.50 / qpmin=6 / qpmax=51 / qpstep=4 / cplxblur=20.0 / qblur=0.5 / vbv_maxrate=7500 / vbv_bufsize=10000 / nal_hrd=vbr / filler=0 / ip_ratio=1.40 / aq=1:1.00
    Language                    : Chinese
    Default                     : Yes
    Forced                      : No
    
    Audio #1
    ID                          : 2
    Format                      : E-AC-3
    Format/Info                 : Enhanced AC-3
    Commercial name             : Dolby Digital Plus
    Codec ID                    : A_EAC3
    Duration                    : 1 h 41 min
    Bit rate mode               : Constant
    Bit rate                    : 640 kb/s
    Channel(s)                  : 6 channels
    Channel layout              : L R C LFE Ls Rs
    Sampling rate               : 48.0 kHz
    Frame rate                  : 31.250 FPS (1536 SPF)
    Compression mode            : Lossy
    Stream size                 : 463 MiB (10%)
    Language                    : Chinese
    Service kind                : Complete Main
    Default                     : Yes
    Forced                      : No
    
    Audio #2
    ID                          : 3
    Format                      : E-AC-3
    Format/Info                 : Enhanced AC-3
    Commercial name             : Dolby Digital Plus
    Codec ID                    : A_EAC3
    Duration                    : 1 h 41 min
    Bit rate mode               : Constant
    Bit rate                    : 640 kb/s
    Channel(s)                  : 6 channels
    Channel layout              : L R C LFE Ls Rs
    Sampling rate               : 48.0 kHz
    Frame rate                  : 31.250 FPS (1536 SPF)
    Compression mode            : Lossy
    Stream size                 : 463 MiB (10%)
    Language                    : English
    Service kind                : Complete Main
    Default                     : No
    Forced                      : No
    
    Text #1
    ID                          : 4
    Format                      : UTF-8
    Codec ID                    : S_TEXT/UTF8
    Codec ID/Info               : UTF-8 Plain Text
    Duration                    : 1 h 29 min
    Bit rate                    : 34 b/s
    Frame rate                  : 0.155 FPS
    Count of elements           : 829
    Stream size                 : 22.9 KiB (0%)
    Language                    : Chinese
    Default                     : No
    Forced                      : No
    
    Text #2
    ID                          : 5
    Format                      : UTF-8
    Codec ID                    : S_TEXT/UTF8
    Codec ID/Info               : UTF-8 Plain Text
    Duration                    : 1 h 25 min
    Bit rate                    : 1 b/s
    Frame rate                  : 0.008 FPS
    Count of elements           : 40
    Stream size                 : 820 Bytes (0%)
    Title                       : Forced
    Language                    : English
    Default                     : No
    Forced                      : Yes
    
    Text #3
    ID                          : 6
    Format                      : UTF-8
    Codec ID                    : S_TEXT/UTF8
    Codec ID/Info               : UTF-8 Plain Text
    Duration                    : 1 h 29 min
    Bit rate                    : 39 b/s
    Frame rate                  : 0.155 FPS
    Count of elements           : 834
    Stream size                 : 25.9 KiB (0%)
    Language                    : English
    Default                     : No
    Forced                      : No
    
    Text #4
    ID                          : 7
    Format                      : UTF-8
    Codec ID                    : S_TEXT/UTF8
    Codec ID/Info               : UTF-8 Plain Text
    Duration                    : 1 h 31 min
    Bit rate                    : 44 b/s
    Frame rate                  : 0.198 FPS
    Count of elements           : 1091
    Stream size                 : 30.2 KiB (0%)
    Title                       : SDH
    Language                    : English
    Default                     : No
    Forced                      : No
    
    Text #5
    ID                          : 8
    Format                      : UTF-8
    Codec ID                    : S_TEXT/UTF8
    Codec ID/Info               : UTF-8 Plain Text
    Duration                    : 1 h 37 min
    Bit rate                    : 56 b/s
    Frame rate                  : 0.153 FPS
    Count of elements           : 892
    Stream size                 : 40.4 KiB (0%)
    Language                    : Arabic
    Default                     : No
    Forced                      : No
    
    Text #6
    ID                          : 9
    Format                      : UTF-8
    Codec ID                    : S_TEXT/UTF8
    Codec ID/Info               : UTF-8 Plain Text
    Duration                    : 1 h 37 min
    Bit rate                    : 33 b/s
    Frame rate                  : 0.153 FPS
    Count of elements           : 892
    Stream size                 : 23.5 KiB (0%)
    Language                    : Czech
    Default                     : No
    Forced                      : No
    
    Text #7
    ID                          : 10
    Format                      : UTF-8
    Codec ID                    : S_TEXT/UTF8
    Codec ID/Info               : UTF-8 Plain Text
    Duration                    : 1 h 37 min
    Bit rate                    : 33 b/s
    Frame rate                  : 0.152 FPS
    Count of elements           : 884
    Stream size                 : 23.5 KiB (0%)
    Language                    : Danish
    Default                     : No
    Forced                      : No
    
    Text #8
    ID                          : 11
    Format                      : UTF-8
    Codec ID                    : S_TEXT/UTF8
    Codec ID/Info               : UTF-8 Plain Text
    Duration                    : 1 h 37 min
    Bit rate                    : 35 b/s
    Frame rate                  : 0.151 FPS
    Count of elements           : 882
    Stream size                 : 24.9 KiB (0%)
    Language                    : German
    Default                     : No
    Forced                      : No
    
    Text #9
    ID                          : 12
    Format                      : UTF-8
    Codec ID                    : S_TEXT/UTF8
    Codec ID/Info               : UTF-8 Plain Text
    Duration                    : 1 h 29 min
    Bit rate                    : 59 b/s
    Frame rate                  : 0.166 FPS
    Count of elements           : 891
    Stream size                 : 39.2 KiB (0%)
    Language                    : Greek
    Default                     : No
    Forced                      : No
    
    Text #10
    ID                          : 13
    Format                      : UTF-8
    Codec ID                    : S_TEXT/UTF8
    Codec ID/Info               : UTF-8 Plain Text
    Duration                    : 1 h 37 min
    Bit rate                    : 35 b/s
    Frame rate                  : 0.152 FPS
    Count of elements           : 885
    Stream size                 : 25.4 KiB (0%)
    Title                       : Latin American
    Language                    : Spanish
    Default                     : No
    Forced                      : No
    
    Text #11
    ID                          : 14
    Format                      : UTF-8
    Codec ID                    : S_TEXT/UTF8
    Codec ID/Info               : UTF-8 Plain Text
    Duration                    : 1 h 37 min
    Bit rate                    : 35 b/s
    Frame rate                  : 0.153 FPS
    Count of elements           : 892
    Stream size                 : 25.2 KiB (0%)
    Language                    : Spanish
    Default                     : No
    Forced                      : No
    
    Text #12
    ID                          : 15
    Format                      : UTF-8
    Codec ID                    : S_TEXT/UTF8
    Codec ID/Info               : UTF-8 Plain Text
    Duration                    : 1 h 37 min
    Bit rate                    : 34 b/s
    Frame rate                  : 0.151 FPS
    Count of elements           : 881
    Stream size                 : 24.4 KiB (0%)
    Language                    : Finnish
    Default                     : No
    Forced                      : No
    
    Text #13
    ID                          : 16
    Format                      : UTF-8
    Codec ID                    : S_TEXT/UTF8
    Codec ID/Info               : UTF-8 Plain Text
    Duration                    : 1 h 37 min
    Bit rate                    : 38 b/s
    Frame rate                  : 0.150 FPS
    Count of elements           : 872
    Stream size                 : 27.2 KiB (0%)
    Language                    : fil
    Default                     : No
    Forced                      : No
    
    Text #14
    ID                          : 17
    Format                      : UTF-8
    Codec ID                    : S_TEXT/UTF8
    Codec ID/Info               : UTF-8 Plain Text
    Duration                    : 1 h 37 min
    Bit rate                    : 36 b/s
    Frame rate                  : 0.153 FPS
    Count of elements           : 890
    Stream size                 : 25.8 KiB (0%)
    Language                    : French
    Default                     : No
    Forced                      : No
    
    Text #15
    ID                          : 18
    Format                      : UTF-8
    Codec ID                    : S_TEXT/UTF8
    Codec ID/Info               : UTF-8 Plain Text
    Duration                    : 1 h 37 min
    Bit rate                    : 51 b/s
    Frame rate                  : 0.153 FPS
    Count of elements           : 891
    Stream size                 : 36.5 KiB (0%)
    Language                    : Hebrew
    Default                     : No
    Forced                      : No
    
    Text #16
    ID                          : 19
    Format                      : UTF-8
    Codec ID                    : S_TEXT/UTF8
    Codec ID/Info               : UTF-8 Plain Text
    Duration                    : 1 h 37 min
    Bit rate                    : 30 b/s
    Frame rate                  : 0.153 FPS
    Count of elements           : 892
    Stream size                 : 21.9 KiB (0%)
    Language                    : Croatian
    Default                     : No
    Forced                      : No
    
    Text #17
    ID                          : 20
    Format                      : UTF-8
    Codec ID                    : S_TEXT/UTF8
    Codec ID/Info               : UTF-8 Plain Text
    Duration                    : 1 h 37 min
    Bit rate                    : 35 b/s
    Frame rate                  : 0.153 FPS
    Count of elements           : 892
    Stream size                 : 25.0 KiB (0%)
    Language                    : Hungarian
    Default                     : No
    Forced                      : No
    
    Text #18
    ID                          : 21
    Format                      : UTF-8
    Codec ID                    : S_TEXT/UTF8
    Codec ID/Info               : UTF-8 Plain Text
    Duration                    : 1 h 37 min
    Bit rate                    : 34 b/s
    Frame rate                  : 0.153 FPS
    Count of elements           : 891
    Stream size                 : 24.6 KiB (0%)
    Language                    : Indonesian
    Default                     : No
    Forced                      : No
    
    Text #19
    ID                          : 22
    Format                      : UTF-8
    Codec ID                    : S_TEXT/UTF8
    Codec ID/Info               : UTF-8 Plain Text
    Duration                    : 1 h 37 min
    Bit rate                    : 33 b/s
    Frame rate                  : 0.152 FPS
    Count of elements           : 887
    Stream size                 : 24.2 KiB (0%)
    Language                    : Italian
    Default                     : No
    Forced                      : No
    
    Text #20
    ID                          : 23
    Format                      : UTF-8
    Codec ID                    : S_TEXT/UTF8
    Codec ID/Info               : UTF-8 Plain Text
    Duration                    : 1 h 37 min
    Bit rate                    : 33 b/s
    Frame rate                  : 0.134 FPS
    Count of elements           : 781
    Stream size                 : 23.5 KiB (0%)
    Language                    : Japanese
    Default                     : No
    Forced                      : No
    
    Text #21
    ID                          : 24
    Format                      : UTF-8
    Codec ID                    : S_TEXT/UTF8
    Codec ID/Info               : UTF-8 Plain Text
    Duration                    : 1 h 37 min
    Bit rate                    : 42 b/s
    Frame rate                  : 0.150 FPS
    Count of elements           : 876
    Stream size                 : 30.1 KiB (0%)
    Language                    : Korean
    Default                     : No
    Forced                      : No
    
    Text #22
    ID                          : 25
    Format                      : UTF-8
    Codec ID                    : S_TEXT/UTF8
    Codec ID/Info               : UTF-8 Plain Text
    Duration                    : 1 h 37 min
    Bit rate                    : 34 b/s
    Frame rate                  : 0.153 FPS
    Count of elements           : 891
    Stream size                 : 24.8 KiB (0%)
    Language                    : Malay
    Default                     : No
    Forced                      : No
    
    Text #23
    ID                          : 26
    Format                      : UTF-8
    Codec ID                    : S_TEXT/UTF8
    Codec ID/Info               : UTF-8 Plain Text
    Duration                    : 1 h 37 min
    Bit rate                    : 33 b/s
    Frame rate                  : 0.153 FPS
    Count of elements           : 891
    Stream size                 : 23.9 KiB (0%)
    Language                    : Norwegian Bokmal
    Default                     : No
    Forced                      : No
    
    Text #24
    ID                          : 27
    Format                      : UTF-8
    Codec ID                    : S_TEXT/UTF8
    Codec ID/Info               : UTF-8 Plain Text
    Duration                    : 1 h 37 min
    Bit rate                    : 31 b/s
    Frame rate                  : 0.152 FPS
    Count of elements           : 883
    Stream size                 : 22.7 KiB (0%)
    Language                    : Dutch
    Default                     : No
    Forced                      : No
    
    Text #25
    ID                          : 28
    Format                      : UTF-8
    Codec ID                    : S_TEXT/UTF8
    Codec ID/Info               : UTF-8 Plain Text
    Duration                    : 1 h 37 min
    Bit rate                    : 31 b/s
    Frame rate                  : 0.153 FPS
    Count of elements           : 892
    Stream size                 : 22.2 KiB (0%)
    Language                    : Polish
    Default                     : No
    Forced                      : No
    
    Text #26
    ID                          : 29
    Format                      : UTF-8
    Codec ID                    : S_TEXT/UTF8
    Codec ID/Info               : UTF-8 Plain Text
    Duration                    : 1 h 37 min
    Bit rate                    : 33 b/s
    Frame rate                  : 0.151 FPS
    Count of elements           : 880
    Stream size                 : 23.7 KiB (0%)
    Title                       : Brazilian
    Language                    : Portuguese
    Default                     : No
    Forced                      : No
    
    Text #27
    ID                          : 30
    Format                      : UTF-8
    Codec ID                    : S_TEXT/UTF8
    Codec ID/Info               : UTF-8 Plain Text
    Duration                    : 1 h 37 min
    Bit rate                    : 33 b/s
    Frame rate                  : 0.153 FPS
    Count of elements           : 892
    Stream size                 : 23.9 KiB (0%)
    Language                    : Portuguese
    Default                     : No
    Forced                      : No
    
    Text #28
    ID                          : 31
    Format                      : UTF-8
    Codec ID                    : S_TEXT/UTF8
    Codec ID/Info               : UTF-8 Plain Text
    Duration                    : 1 h 37 min
    Bit rate                    : 37 b/s
    Frame rate                  : 0.144 FPS
    Count of elements           : 840
    Stream size                 : 26.6 KiB (0%)
    Language                    : Romanian
    Default                     : No
    Forced                      : No
    
    Text #29
    ID                          : 32
    Format                      : UTF-8
    Codec ID                    : S_TEXT/UTF8
    Codec ID/Info               : UTF-8 Plain Text
    Duration                    : 1 h 37 min
    Bit rate                    : 53 b/s
    Frame rate                  : 0.153 FPS
    Count of elements           : 892
    Stream size                 : 38.2 KiB (0%)
    Language                    : Russian
    Default                     : No
    Forced                      : No
    
    Text #30
    ID                          : 33
    Format                      : UTF-8
    Codec ID                    : S_TEXT/UTF8
    Codec ID/Info               : UTF-8 Plain Text
    Duration                    : 1 h 37 min
    Bit rate                    : 33 b/s
    Frame rate                  : 0.153 FPS
    Count of elements           : 890
    Stream size                 : 23.8 KiB (0%)
    Language                    : Swedish
    Default                     : No
    Forced                      : No
    
    Text #31
    ID                          : 34
    Format                      : UTF-8
    Codec ID                    : S_TEXT/UTF8
    Codec ID/Info               : UTF-8 Plain Text
    Duration                    : 1 h 37 min
    Bit rate                    : 82 b/s
    Frame rate                  : 0.156 FPS
    Count of elements           : 906
    Stream size                 : 58.6 KiB (0%)
    Language                    : Thai
    Default                     : No
    Forced                      : No
    
    Text #32
    ID                          : 35
    Format                      : UTF-8
    Codec ID                    : S_TEXT/UTF8
    Codec ID/Info               : UTF-8 Plain Text
    Duration                    : 1 h 37 min
    Bit rate                    : 34 b/s
    Frame rate                  : 0.153 FPS
    Count of elements           : 892
    Stream size                 : 24.3 KiB (0%)
    Language                    : Turkish
    Default                     : No
    Forced                      : No
    
    Text #33
    ID                          : 36
    Format                      : UTF-8
    Codec ID                    : S_TEXT/UTF8
    Codec ID/Info               : UTF-8 Plain Text
    Duration                    : 1 h 37 min
    Bit rate                    : 55 b/s
    Frame rate                  : 0.153 FPS
    Count of elements           : 890
    Stream size                 : 39.5 KiB (0%)
    Language                    : Ukrainian
    Default                     : No
    Forced                      : No
    
    Text #34
    ID                          : 37
    Format                      : UTF-8
    Codec ID                    : S_TEXT/UTF8
    Codec ID/Info               : UTF-8 Plain Text
    Duration                    : 1 h 37 min
    Bit rate                    : 50 b/s
    Frame rate                  : 0.154 FPS
    Count of elements           : 894
    Stream size                 : 35.7 KiB (0%)
    Language                    : Vietnamese
    Default                     : No
    Forced                      : No
    
    Text #35
    ID                          : 38
    Format                      : UTF-8
    Codec ID                    : S_TEXT/UTF8
    Codec ID/Info               : UTF-8 Plain Text
    Duration                    : 1 h 37 min
    Bit rate                    : 33 b/s
    Frame rate                  : 0.156 FPS
    Count of elements           : 906
    Stream size                 : 23.5 KiB (0%)
    Title                       : Simplified
    Language                    : Chinese
    Default                     : No
    Forced                      : No
    
    Text #36
    ID                          : 39
    Format                      : UTF-8
    Codec ID                    : S_TEXT/UTF8
    Codec ID/Info               : UTF-8 Plain Text
    Duration                    : 1 h 29 min
    Bit rate                    : 35 b/s
    Frame rate                  : 0.174 FPS
    Count of elements           : 932
    Stream size                 : 23.0 KiB (0%)
    Title                       : Traditional
    Language                    : Chinese
    Default                     : No
    Forced                      : No
    
    Menu
    01:33:29.000                : en:End Credits
    Download - Mirror 1:
    Download - Mirror 2:
     
  2. Loading...


Share This Page