Google Drive Watcher.2022.2160p.WEB-DL.DD5.1.HEVC-CMRG

Discussion in 'Web-DL / Webrip | 4K' started by DDLbase, Jun 21, 2022.

  1. DDLbase

    DDLbase Administrator Staff Member

    [​IMG]

    Rating: 6.7/10 based on 1,381 user ratings

    Genres: Drama, Horror, Thriller

    A young American woman moves with her husband to Bucharest, and begins to suspect that a stranger who watches her from the apartment building across the street may be a local serial killer decapitating women.

    [​IMG]
    Code:
    General
    Unique ID                   : 142153438453669854656232462315632510999 (0x6AF1C1A238B1BFE364C8E517F1F0C817)
    Complete name               : Watcher.2022.2160p.WEB-DL.DD5.1.HEVC-CMRG.mkv
    Format                      : Matroska
    Format version              : Version 4
    File size                   : 8.37 GiB
    Duration                    : 1 h 36 min
    Overall bit rate            : 12.5 Mb/s
    Encoded date                : UTC 2022-06-21 04:02:57
    Writing application         : mkvmerge v61.0.0 ('So') 64-bit
    Writing library             : libebml v1.4.2 + libmatroska v1.6.4
    
    Video
    ID                          : 1
    Format                      : HEVC
    Format/Info                 : High Efficiency Video Coding
    Format profile              : Main [email protected]@High
    Codec ID                    : V_MPEGH/ISO/HEVC
    Duration                    : 1 h 36 min
    Bit rate                    : 12.1 Mb/s
    Width                       : 3 832 pixels
    Height                      : 1 912 pixels
    Display aspect ratio        : 2.004
    Frame rate mode             : Constant
    Frame rate                  : 23.976 FPS
    Color space                 : YUV
    Chroma subsampling          : 4:2:0
    Bit depth                   : 10 bits
    Bits/(Pixel*Frame)          : 0.069
    Stream size                 : 8.11 GiB (97%)
    Language                    : English
    Default                     : Yes
    Forced                      : No
    Color range                 : Limited
    Color primaries             : BT.709
    Transfer characteristics    : BT.709
    Matrix coefficients         : BT.709
    
    Audio
    ID                          : 2
    Format                      : AC-3
    Format/Info                 : Audio Coding 3
    Commercial name             : Dolby Digital
    Codec ID                    : A_AC3
    Duration                    : 1 h 36 min
    Bit rate mode               : Constant
    Bit rate                    : 384 kb/s
    Channel(s)                  : 6 channels
    Channel layout              : L R C LFE Ls Rs
    Sampling rate               : 48.0 kHz
    Frame rate                  : 31.250 FPS (1536 SPF)
    Compression mode            : Lossy
    Stream size                 : 264 MiB (3%)
    Language                    : English
    Service kind                : Complete Main
    Default                     : Yes
    Forced                      : No
    
    Text #1
    ID                          : 3
    Format                      : UTF-8
    Codec ID                    : S_TEXT/UTF8
    Codec ID/Info               : UTF-8 Plain Text
    Duration                    : 1 h 35 min
    Bit rate                    : 33 b/s
    Count of elements           : 949
    Stream size                 : 23.5 KiB (0%)
    Title                       : SDH
    Language                    : English
    Default                     : No
    Forced                      : No
    
    Text #2
    ID                          : 4
    Format                      : UTF-8
    Codec ID                    : S_TEXT/UTF8
    Codec ID/Info               : UTF-8 Plain Text
    Duration                    : 1 h 28 min
    Bit rate                    : 27 b/s
    Count of elements           : 658
    Stream size                 : 17.6 KiB (0%)
    Language                    : English
    Default                     : No
    Forced                      : No
    
    Menu
    00:00:00.000                : Chapter 01
    00:10:02.220                : Chapter 02
    00:20:14.210                : Chapter 03
    00:30:39.330                : Chapter 04
    00:41:10.380                : Chapter 05
    00:50:11.750                : Chapter 06
    01:01:54.120                : Chapter 07
    01:10:26.380                : Chapter 08
    01:21:21.580                : Chapter 09
    01:31:22.140                : Chapter 10
    Download - Mirror 1:
    Download - Mirror 2:
     
  2. Loading...


Share This Page