Google Drive Werewolf.by.Night.2022.2160p.DSNP.WEB-DL.DDP5.1.HDR.H.265-NTb

Discussion in 'Web-DL / Webrip | 4K' started by DDLbase, Oct 7, 2022.

  1. DDLbase

    DDLbase Administrator Staff Member

    [​IMG]

    Rating: 8.0/10 based on 1,963 user ratings

    Genres: Action, Adventure, Comedy

    Follows a lycanthrope superhero who fights evil using the abilities given to him by a curse brought on by his bloodline.

    [​IMG]
    Code:
    General
    Unique ID                   : 136258946160091503317127738267387120921 (0x668284B9CC0682037440E84372094D19)
    Complete name               : Werewolf.by.Night.2022.2160p.DSNP.WEB-DL.DDP5.1.HDR.H.265-NTb.mkv
    Format                      : Matroska
    Format version              : Version 4
    File size                   : 5.51 GiB
    Duration                    : 52 min 37 s
    Overall bit rate            : 15.0 Mb/s
    Writing application         : mkvmerge v70.0.0 ('Caught A Lite Sneeze') 64-bit
    Writing library             : libebml v1.4.2 + libmatroska v1.6.4
    
    Video
    ID                          : 1
    Format                      : HEVC
    Format/Info                 : High Efficiency Video Coding
    Format profile              : Main 10@L5@High
    HDR format                  : SMPTE ST 2086, HDR10 compatible
    Codec ID                    : V_MPEGH/ISO/HEVC
    Duration                    : 52 min 37 s
    Bit rate                    : 14.2 Mb/s
    Width                       : 3 840 pixels
    Height                      : 2 160 pixels
    Display aspect ratio        : 16:9
    Frame rate mode             : Constant
    Frame rate                  : 24.000 FPS
    Color space                 : YUV
    Chroma subsampling          : 4:2:0
    Bit depth                   : 10 bits
    Bits/(Pixel*Frame)          : 0.071
    Stream size                 : 5.23 GiB (95%)
    Default                     : Yes
    Forced                      : No
    Color range                 : Limited
    Color primaries             : BT.2020
    Transfer characteristics    : PQ
    Matrix coefficients         : BT.2020 non-constant
    Mastering display color pri : BT.2020
    Mastering display luminance : min: 0.0000 cd/m2, max: 1000 cd/m2
    
    Audio
    ID                          : 2
    Format                      : E-AC-3 JOC
    Format/Info                 : Enhanced AC-3 with Joint Object Coding
    Commercial name             : Dolby Digital Plus with Dolby Atmos
    Codec ID                    : A_EAC3
    Duration                    : 52 min 37 s
    Bit rate mode               : Constant
    Bit rate                    : 768 kb/s
    Channel(s)                  : 6 channels
    Channel layout              : L R C LFE Ls Rs
    Sampling rate               : 48.0 kHz
    Frame rate                  : 31.250 FPS (1536 SPF)
    Compression mode            : Lossy
    Stream size                 : 289 MiB (5%)
    Language                    : English
    Service kind                : Complete Main
    Default                     : Yes
    Forced                      : No
    Complexity index            : 16
    Number of dynamic objects   : 15
    Bed channel count           : 1 channel
    Bed channel configuration   : LFE
    
    Text #1
    ID                          : 3
    Format                      : UTF-8
    Codec ID                    : S_TEXT/UTF8
    Codec ID/Info               : UTF-8 Plain Text
    Duration                    : 46 min 47 s
    Bit rate                    : 32 b/s
    Frame rate                  : 0.121 FPS
    Count of elements           : 339
    Stream size                 : 11.1 KiB (0%)
    Language                    : English
    Default                     : No
    Forced                      : No
    
    Text #2
    ID                          : 4
    Format                      : UTF-8
    Codec ID                    : S_TEXT/UTF8
    Codec ID/Info               : UTF-8 Plain Text
    Duration                    : 47 min 41 s
    Bit rate                    : 37 b/s
    Frame rate                  : 0.162 FPS
    Count of elements           : 465
    Stream size                 : 13.1 KiB (0%)
    Title                       : SDH
    Language                    : English
    Default                     : No
    Forced                      : No
    
    Text #3
    ID                          : 5
    Format                      : UTF-8
    Codec ID                    : S_TEXT/UTF8
    Codec ID/Info               : UTF-8 Plain Text
    Duration                    : 52 min 23 s
    Bit rate                    : 25 b/s
    Frame rate                  : 0.107 FPS
    Count of elements           : 337
    Stream size                 : 9.95 KiB (0%)
    Language                    : Czech
    Default                     : No
    Forced                      : No
    
    Text #4
    ID                          : 6
    Format                      : UTF-8
    Codec ID                    : S_TEXT/UTF8
    Codec ID/Info               : UTF-8 Plain Text
    Duration                    : 51 min 20 s
    Bit rate                    : 26 b/s
    Frame rate                  : 0.087 FPS
    Count of elements           : 267
    Stream size                 : 10.1 KiB (0%)
    Language                    : Danish
    Default                     : No
    Forced                      : No
    
    Text #5
    ID                          : 7
    Format                      : UTF-8
    Codec ID                    : S_TEXT/UTF8
    Codec ID/Info               : UTF-8 Plain Text
    Duration                    : 52 min 23 s
    Bit rate                    : 29 b/s
    Frame rate                  : 0.107 FPS
    Count of elements           : 336
    Stream size                 : 11.3 KiB (0%)
    Language                    : German
    Default                     : No
    Forced                      : No
    
    Text #6
    ID                          : 8
    Format                      : UTF-8
    Codec ID                    : S_TEXT/UTF8
    Codec ID/Info               : UTF-8 Plain Text
    Duration                    : 52 min 23 s
    Bit rate                    : 50 b/s
    Frame rate                  : 0.107 FPS
    Count of elements           : 336
    Stream size                 : 19.6 KiB (0%)
    Language                    : Greek
    Default                     : No
    Forced                      : No
    
    Text #7
    ID                          : 9
    Format                      : UTF-8
    Codec ID                    : S_TEXT/UTF8
    Codec ID/Info               : UTF-8 Plain Text
    Duration                    : 52 min 23 s
    Bit rate                    : 29 b/s
    Frame rate                  : 0.108 FPS
    Count of elements           : 338
    Stream size                 : 11.4 KiB (0%)
    Title                       : Spanish (Latin America)
    Language                    : Spanish
    Default                     : No
    Forced                      : No
    
    Text #8
    ID                          : 10
    Format                      : UTF-8
    Codec ID                    : S_TEXT/UTF8
    Codec ID/Info               : UTF-8 Plain Text
    Duration                    : 52 min 23 s
    Bit rate                    : 27 b/s
    Frame rate                  : 0.106 FPS
    Count of elements           : 332
    Stream size                 : 10.6 KiB (0%)
    Title                       : Spanish (Spain)
    Language                    : Spanish
    Default                     : No
    Forced                      : No
    
    Text #9
    ID                          : 11
    Format                      : UTF-8
    Codec ID                    : S_TEXT/UTF8
    Codec ID/Info               : UTF-8 Plain Text
    Duration                    : 51 min 41 s
    Bit rate                    : 28 b/s
    Frame rate                  : 0.108 FPS
    Count of elements           : 335
    Stream size                 : 10.8 KiB (0%)
    Language                    : Finnish
    Default                     : No
    Forced                      : No
    
    Text #10
    ID                          : 12
    Format                      : UTF-8
    Codec ID                    : S_TEXT/UTF8
    Codec ID/Info               : UTF-8 Plain Text
    Duration                    : 52 min 23 s
    Bit rate                    : 26 b/s
    Frame rate                  : 0.122 FPS
    Count of elements           : 382
    Stream size                 : 10.1 KiB (0%)
    Title                       : French (Canada)
    Language                    : French
    Default                     : No
    Forced                      : No
    
    Text #11
    ID                          : 13
    Format                      : UTF-8
    Codec ID                    : S_TEXT/UTF8
    Codec ID/Info               : UTF-8 Plain Text
    Duration                    : 48 min 56 s
    Bit rate                    : 27 b/s
    Frame rate                  : 0.128 FPS
    Count of elements           : 376
    Stream size                 : 9.91 KiB (0%)
    Title                       : French (France)
    Language                    : French
    Default                     : No
    Forced                      : No
    
    Text #12
    ID                          : 14
    Format                      : UTF-8
    Codec ID                    : S_TEXT/UTF8
    Codec ID/Info               : UTF-8 Plain Text
    Duration                    : 52 min 23 s
    Bit rate                    : 28 b/s
    Frame rate                  : 0.108 FPS
    Count of elements           : 338
    Stream size                 : 10.8 KiB (0%)
    Language                    : Hungarian
    Default                     : No
    Forced                      : No
    
    Text #13
    ID                          : 15
    Format                      : UTF-8
    Codec ID                    : S_TEXT/UTF8
    Codec ID/Info               : UTF-8 Plain Text
    Duration                    : 51 min 41 s
    Bit rate                    : 29 b/s
    Frame rate                  : 0.107 FPS
    Count of elements           : 333
    Stream size                 : 11.0 KiB (0%)
    Language                    : Italian
    Default                     : No
    Forced                      : No
    
    Text #14
    ID                          : 16
    Format                      : UTF-8
    Codec ID                    : S_TEXT/UTF8
    Codec ID/Info               : UTF-8 Plain Text
    Duration                    : 52 min 22 s
    Bit rate                    : 26 b/s
    Frame rate                  : 0.115 FPS
    Count of elements           : 363
    Stream size                 : 10.1 KiB (0%)
    Language                    : Japanese
    Default                     : No
    Forced                      : No
    
    Text #15
    ID                          : 17
    Format                      : UTF-8
    Codec ID                    : S_TEXT/UTF8
    Codec ID/Info               : UTF-8 Plain Text
    Duration                    : 52 min 23 s
    Bit rate                    : 30 b/s
    Frame rate                  : 0.108 FPS
    Count of elements           : 339
    Stream size                 : 11.9 KiB (0%)
    Language                    : Korean
    Default                     : No
    Forced                      : No
    
    Text #16
    ID                          : 18
    Format                      : UTF-8
    Codec ID                    : S_TEXT/UTF8
    Codec ID/Info               : UTF-8 Plain Text
    Duration                    : 51 min 20 s
    Bit rate                    : 29 b/s
    Frame rate                  : 0.103 FPS
    Count of elements           : 318
    Stream size                 : 11.1 KiB (0%)
    Language                    : Dutch
    Default                     : No
    Forced                      : No
    
    Text #17
    ID                          : 19
    Format                      : UTF-8
    Codec ID                    : S_TEXT/UTF8
    Codec ID/Info               : UTF-8 Plain Text
    Duration                    : 52 min 23 s
    Bit rate                    : 27 b/s
    Frame rate                  : 0.107 FPS
    Count of elements           : 336
    Stream size                 : 10.7 KiB (0%)
    Language                    : Norwegian
    Default                     : No
    Forced                      : No
    
    Text #18
    ID                          : 20
    Format                      : UTF-8
    Codec ID                    : S_TEXT/UTF8
    Codec ID/Info               : UTF-8 Plain Text
    Duration                    : 52 min 23 s
    Bit rate                    : 28 b/s
    Frame rate                  : 0.107 FPS
    Count of elements           : 337
    Stream size                 : 10.8 KiB (0%)
    Language                    : Polish
    Default                     : No
    Forced                      : No
    
    Text #19
    ID                          : 21
    Format                      : UTF-8
    Codec ID                    : S_TEXT/UTF8
    Codec ID/Info               : UTF-8 Plain Text
    Duration                    : 52 min 23 s
    Bit rate                    : 30 b/s
    Frame rate                  : 0.107 FPS
    Count of elements           : 337
    Stream size                 : 11.6 KiB (0%)
    Title                       : Portuguese (Brazil)
    Language                    : Portuguese
    Default                     : No
    Forced                      : No
    
    Text #20
    ID                          : 22
    Format                      : UTF-8
    Codec ID                    : S_TEXT/UTF8
    Codec ID/Info               : UTF-8 Plain Text
    Duration                    : 52 min 23 s
    Bit rate                    : 29 b/s
    Frame rate                  : 0.107 FPS
    Count of elements           : 337
    Stream size                 : 11.1 KiB (0%)
    Title                       : Portuguese (Portugal)
    Language                    : Portuguese
    Default                     : No
    Forced                      : No
    
    Text #21
    ID                          : 23
    Format                      : UTF-8
    Codec ID                    : S_TEXT/UTF8
    Codec ID/Info               : UTF-8 Plain Text
    Duration                    : 52 min 23 s
    Bit rate                    : 28 b/s
    Frame rate                  : 0.106 FPS
    Count of elements           : 334
    Stream size                 : 10.8 KiB (0%)
    Language                    : Romanian
    Default                     : No
    Forced                      : No
    
    Text #22
    ID                          : 24
    Format                      : UTF-8
    Codec ID                    : S_TEXT/UTF8
    Codec ID/Info               : UTF-8 Plain Text
    Duration                    : 52 min 23 s
    Bit rate                    : 26 b/s
    Frame rate                  : 0.107 FPS
    Count of elements           : 335
    Stream size                 : 10.1 KiB (0%)
    Language                    : Slovak
    Default                     : No
    Forced                      : No
    
    Text #23
    ID                          : 25
    Format                      : UTF-8
    Codec ID                    : S_TEXT/UTF8
    Codec ID/Info               : UTF-8 Plain Text
    Duration                    : 51 min 41 s
    Bit rate                    : 28 b/s
    Frame rate                  : 0.106 FPS
    Count of elements           : 330
    Stream size                 : 10.6 KiB (0%)
    Language                    : Swedish
    Default                     : No
    Forced                      : No
    
    Text #24
    ID                          : 26
    Format                      : UTF-8
    Codec ID                    : S_TEXT/UTF8
    Codec ID/Info               : UTF-8 Plain Text
    Duration                    : 51 min 41 s
    Bit rate                    : 28 b/s
    Frame rate                  : 0.107 FPS
    Count of elements           : 333
    Stream size                 : 10.8 KiB (0%)
    Language                    : Turkish
    Default                     : No
    Forced                      : No
    
    Text #25
    ID                          : 27
    Format                      : UTF-8
    Codec ID                    : S_TEXT/UTF8
    Codec ID/Info               : UTF-8 Plain Text
    Duration                    : 52 min 23 s
    Bit rate                    : 21 b/s
    Frame rate                  : 0.108 FPS
    Count of elements           : 339
    Stream size                 : 8.42 KiB (0%)
    Title                       : Chinese (Hong Kong SAR China)
    Language                    : Chinese
    Default                     : No
    Forced                      : No
    
    Text #26
    ID                          : 28
    Format                      : UTF-8
    Codec ID                    : S_TEXT/UTF8
    Codec ID/Info               : UTF-8 Plain Text
    Duration                    : 52 min 23 s
    Bit rate                    : 25 b/s
    Frame rate                  : 0.108 FPS
    Count of elements           : 339
    Stream size                 : 9.69 KiB (0%)
    Title                       : Chinese (Simplified)
    Language                    : Chinese
    Default                     : No
    Forced                      : No
    
    Text #27
    ID                          : 29
    Format                      : UTF-8
    Codec ID                    : S_TEXT/UTF8
    Codec ID/Info               : UTF-8 Plain Text
    Duration                    : 52 min 23 s
    Bit rate                    : 21 b/s
    Frame rate                  : 0.108 FPS
    Count of elements           : 339
    Stream size                 : 8.06 KiB (0%)
    Title                       : Chinese (Traditional)
    Language                    : Chinese
    Default                     : No
    Forced                      : No
    Download - Mirror 1:
    Download - Mirror 2:
     
  2. Loading...


Share This Page