Google Drive What.Maisie.Knew.2012.1080p.BluRay.x264-GECKOS

Discussion in 'BDRip | 720p/1080p' started by DDLbase, Apr 17, 2021.

  1. DDLbase

    DDLbase Administrator Staff Member

    [​IMG]

    Rating: 7.4/10 based on 26,893 user ratings

    Genre: Drama

    In New York City, a young girl is caught in the middle of her parents’ bitter custody battle.

    [​IMG]
    Code:
    General
    Unique ID                   : 199886283135740862834792050942395397492 (0x9660B2A417720D69B720FEB22805B574)
    Complete name               : What.Maisie.Knew.2012.1080p.BluRay.x264-GECKOS.mkv
    Format                      : Matroska
    Format version              : Version 4
    File size                   : 6.54 GiB
    Duration                    : 1 h 38 min
    Overall bit rate            : 9 471 kb/s
    Encoded date                : UTC 2013-07-24 04:28:07
    Writing application         : mkvmerge v6.2.0 ('Promised Land') built on Apr 28 2013 12:22:01
    Writing library             : libebml v1.3.0 + libmatroska v1.4.0
    
    Video
    ID                          : 1
    Format                      : AVC
    Format/Info                 : Advanced Video Codec
    Format profile              : [email protected]
    Format settings             : CABAC / 5 Ref Frames
    Format settings, CABAC      : Yes
    Format settings, Reference  : 5 frames
    Codec ID                    : V_MPEG4/ISO/AVC
    Duration                    : 1 h 38 min
    Bit rate                    : 8 846 kb/s
    Width                       : 1 920 pixels
    Height                      : 800 pixels
    Display aspect ratio        : 2.40:1
    Frame rate mode             : Constant
    Frame rate                  : 23.976 FPS
    Color space                 : YUV
    Chroma subsampling          : 4:2:0
    Bit depth                   : 8 bits
    Scan type                   : Progressive
    Bits/(Pixel*Frame)          : 0.240
    Stream size                 : 5.97 GiB (91%)
    Title                       : X264
    Writing library             : x264 core 133 r2334 a3ac64b
    Encoding settings           : cabac=1 / ref=5 / deblock=1:0:0 / analyse=0x3:0x133 / me=umh / subme=7 / psy=1 / psy_rd=1.00:0.00 / mixed_ref=1 / me_range=16 / chroma_me=1 / trellis=1 / 8x8dct=1 / cqm=0 / deadzone=21,11 / fast_pskip=0 / chroma_qp_offset=-2 / threads=36 / lookahead_threads=6 / sliced_threads=0 / nr=0 / decimate=1 / interlaced=0 / bluray_compat=0 / constrained_intra=0 / bframes=3 / b_pyramid=2 / b_adapt=1 / b_bias=0 / direct=1 / weightb=1 / open_gop=0 / weightp=2 / keyint=250 / keyint_min=23 / scenecut=40 / intra_refresh=0 / rc_lookahead=40 / rc=2pass / mbtree=1 / bitrate=8846 / ratetol=1.0 / qcomp=0.60 / qpmin=0 / qpmax=69 / qpstep=4 / cplxblur=20.0 / qblur=0.5 / ip_ratio=1.40 / aq=1:1.00
    Language                    : English
    Default                     : Yes
    Forced                      : No
    
    Audio
    ID                          : 2
    Format                      : AC-3
    Format/Info                 : Audio Coding 3
    Commercial name             : Dolby Digital
    Codec ID                    : A_AC3
    Duration                    : 1 h 38 min
    Bit rate mode               : Constant
    Bit rate                    : 640 kb/s
    Channel(s)                  : 6 channels
    Channel layout              : L R C LFE Ls Rs
    Sampling rate               : 48.0 kHz
    Frame rate                  : 31.250 FPS (1536 SPF)
    Compression mode            : Lossy
    Stream size                 : 453 MiB (7%)
    Title                       : DTS
    Language                    : English
    Service kind                : Complete Main
    Default                     : Yes
    Forced                      : No
    
    Menu
    00:00:00.000                : en:00:00:00.000
    00:08:47.944                : en:00:08:47.944
    00:15:39.230                : en:00:15:39.230
    00:23:45.215                : en:00:23:45.215
    00:31:58.625                : en:00:31:58.625
    00:39:14.227                : en:00:39:14.227
    00:48:48.759                : en:00:48:48.759
    00:56:55.037                : en:00:56:55.037
    01:06:00.373                : en:01:06:00.373
    01:17:18.092                : en:01:17:18.092
    01:28:08.200                : en:01:28:08.200
    01:35:03.573                : en:01:35:03.573
    Download - Mirror 1:
    Download - Mirror 2:
     

Share This Page