Google Drive White.Palace.1990.1080p.BluRay.x264-PSYCHD

Discussion in 'BDRip | 720p/1080p' started by DDLbase, Nov 21, 2022.

New website version: https://ddlbase.com (final revisions being made) New website version: https://ddlbase.com (final revisions being made)
  1. DDLbase

    DDLbase Administrator Staff Member

    [​IMG]

    Rating: 6.5/10 based on 8,386 user ratings

    Genres: Drama, Romance

    Still getting over the death of his wife, a young advertising executive meets an older waitress, a woman that might set him free.

    [​IMG]
    Code:
    General
    Unique ID                   : 0 (0x0)
    Complete name               : White.Palace.1990.1080p.BluRay.x264-PSYCHD.mkv
    Format                      : Matroska
    Format version              : Version 4
    File size                   : 10.9 GiB
    Duration                    : 1 h 42 min
    Overall bit rate            : 15.2 Mb/s
    Encoded date                : UTC 2010-02-22 21:41:29
    Writing application         : no_variable_data
    Writing library             : no_variable_data
    
    Video
    ID                          : 1
    Format                      : AVC
    Format/Info                 : Advanced Video Codec
    Format profile              : [email protected]
    Format settings             : CABAC / 4 Ref Frames
    Format settings, CABAC      : Yes
    Format settings, Reference  : 4 frames
    Codec ID                    : V_MPEG4/ISO/AVC
    Duration                    : 1 h 42 min
    Bit rate                    : 13.7 Mb/s
    Width                       : 1 920 pixels
    Height                      : 1 040 pixels
    Display aspect ratio        : 1.85:1
    Frame rate mode             : Constant
    Frame rate                  : 23.976 (24000/1001) FPS
    Color space                 : YUV
    Chroma subsampling          : 4:2:0
    Bit depth                   : 8 bits
    Scan type                   : Progressive
    Bits/(Pixel*Frame)          : 0.286
    Stream size                 : 9.63 GiB (88%)
    Writing library             : x264 core 152 r2851 ba24899
    Encoding settings           : cabac=1 / ref=4 / deblock=1:-3:-3 / analyse=0x3:0x113 / me=umh / subme=8 / psy=1 / psy_rd=1.15:0.00 / mixed_ref=1 / me_range=32 / chroma_me=1 / trellis=2 / 8x8dct=1 / cqm=0 / deadzone=21,11 / fast_pskip=1 / chroma_qp_offset=-2 / threads=24 / lookahead_threads=4 / sliced_threads=0 / nr=0 / decimate=1 / interlaced=0 / bluray_compat=0 / constrained_intra=0 / bframes=3 / b_pyramid=2 / b_adapt=1 / b_bias=0 / direct=3 / weightb=1 / open_gop=0 / weightp=2 / keyint=240 / keyint_min=24 / scenecut=40 / intra_refresh=0 / rc_lookahead=50 / rc=2pass / mbtree=1 / bitrate=13700 / ratetol=1.0 / qcomp=0.60 / qpmin=0 / qpmax=69 / qpstep=4 / cplxblur=20.0 / qblur=0.5 / ip_ratio=1.40 / aq=3:0.75
    Default                     : Yes
    Forced                      : No
    Statistics Tags Issue       : no_variable_data 1970-01-01 00:00:00 / no_variable_data 2010-02-22 21:41:29
    FromStats_BitRate           : 13695840
    FromStats_Duration          : 01:42:53.167000000
    FromStats_FrameCount        : 148008
    FromStats_StreamSize        : 10568339136
    
    Audio
    ID                          : 2
    Format                      : DTS
    Format/Info                 : Digital Theater Systems
    Codec ID                    : A_DTS
    Duration                    : 1 h 42 min
    Bit rate mode               : Constant
    Bit rate                    : 1 509 kb/s
    Channel(s)                  : 2 channels
    Channel layout              : L R
    Sampling rate               : 48.0 kHz
    Frame rate                  : 93.750 FPS (512 SPF)
    Bit depth                   : 24 bits
    Compression mode            : Lossy
    Stream size                 : 1.08 GiB (10%)
    Language                    : English
    Default                     : Yes
    Forced                      : No
    Statistics Tags Issue       : no_variable_data 1970-01-01 00:00:00 / no_variable_data 2010-02-22 21:41:29
    FromStats_BitRate           : 1508999
    FromStats_Duration          : 01:42:53.174000000
    FromStats_FrameCount        : 578735
    FromStats_StreamSize        : 1164414820
    
    Menu
    00:00:00.000                : en:00:00:00.000
    00:09:55.762                : en:00:09:55.762
    00:19:31.545                : en:00:19:31.545
    00:26:32.508                : en:00:26:32.508
    00:37:18.361                : en:00:37:18.361
    00:46:38.462                : en:00:46:38.462
    00:55:54.768                : en:00:55:54.768
    01:04:44.339                : en:01:04:44.339
    01:13:25.860                : en:01:13:25.860
    01:21:38.560                : en:01:21:38.560
    01:29:56.433                : en:01:29:56.433
    01:35:07.952                : en:01:35:07.952
    Download - Mirror 1:
    Download - Mirror 2:
     
  2. Loading...


Share This Page