Google Drive Who.Framed.Roger.Rabbit.1988.2160p.HDR.DSNP.WEBRip.DTS-HD.MA.5.1.X265-TrollUHD

Discussion in 'Web-DL / Webrip | 1080p' started by DDLbase, Dec 7, 2019.

  1. DDLbase

    DDLbase Administrator Staff Member

    [​IMG]
    [​IMG]
    Code:
    General
    Unique ID                   : 203117099266978405166538061362096353638 (0x98CEEE2CB2A55361C67BD86FE315B166)
    Complete name               : Who.Framed.Roger.Rabbit.1988.2160p.HDR.DSNP.WEBRip.DTS-HD.MA.5.1.X265-TrollUHD.mkv
    Format                      : Matroska
    Format version              : Version 4 / Version 2
    File size                   : 14.9 GiB
    Duration                    : 1 h 43 min
    Overall bit rate            : 20.6 Mb/s
    Encoded date                : UTC 2019-12-03 09:16:16
    Writing application         : mkvmerge v38.0.0 ('The Silent Type') 64-bit
    Writing library             : libebml v1.3.9 + libmatroska v1.5.2
    
    Video
    ID                          : 1
    Format                      : HEVC
    Format/Info                 : High Efficiency Video Coding
    Format profile              : Main [email protected]@Main
    Codec ID                    : V_MPEGH/ISO/HEVC
    Duration                    : 1 h 43 min
    Bit rate                    : 16.1 Mb/s
    Width                       : 3 840 pixels
    Height                      : 2 076 pixels
    Display aspect ratio        : 1.85:1
    Frame rate mode             : Constant
    Frame rate                  : 23.976 (24000/1001) FPS
    Color space                 : YUV
    Chroma subsampling          : 4:2:0
    Bit depth                   : 10 bits
    Bits/(Pixel*Frame)          : 0.084
    Stream size                 : 11.7 GiB (78%)
    Writing library             : x265 3.2+9-971180b100f8:[Windows][MSVC 1923][64 bit] 10bit
    Encoding settings           : cpuid=1111039 / frame-threads=4 / numa-pools=28,0 / wpp / no-pmode / no-pme / no-psnr / no-ssim / log-level=2 / input-csp=1 / input-res=3840x2076 / interlace=0 / total-frames=0 / level-idc=0 / high-tier=1 / uhd-bd=0 / ref=5 / no-allow-non-conformance / repeat-headers / annexb / no-aud / no-hrd / info / hash=0 / no-temporal-layers / open-gop / min-keyint=23 / keyint=250 / gop-lookahead=0 / bframes=8 / b-adapt=2 / b-pyramid / bframe-bias=0 / rc-lookahead=40 / lookahead-slices=0 / scenecut=40 / radl=0 / no-splice / no-intra-refresh / ctu=64 / min-cu-size=8 / no-rect / no-amp / max-tu-size=32 / tu-inter-depth=3 / tu-intra-depth=3 / limit-tu=0 / rdoq-level=1 / dynamic-rd=0.00 / no-ssim-rd / signhide / no-tskip / nr-intra=0 / nr-inter=0 / no-constrained-intra / strong-intra-smoothing / max-merge=5 / limit-refs=0 / no-limit-modes / me=3 / subme=4 / merange=57 / temporal-mvp / no-frame-dup / no-hme / weightp / weightb / no-analyze-src-pics / deblock=0:0 / no-sao / no-sao-non-deblock / rd=6 / selective-sao=0 / no-early-skip / rskip / no-fast-intra / no-tskip-fast / no-cu-lossless / b-intra / no-splitrd-skip / rdpenalty=0 / psy-rd=4.00 / psy-rdoq=8.00 / no-rd-refine / no-lossless / cbqpoffs=0 / crqpoffs=0 / rc=crf / crf=18.0 / qcomp=0.60 / qpstep=4 / stats-write=0 / stats-read=0 / ipratio=1.40 / pbratio=1.30 / aq-mode=2 / aq-strength=1.00 / cutree / zone-count=0 / no-strict-cbr / qg-size=32 / no-rc-grain / qpmax=69 / qpmin=0 / no-const-vbv / sar=0 / overscan=0 / videoformat=5 / range=0 / colorprim=9 / transfer=16 / colormatrix=9 / chromaloc=0 / display-window=0 / cll=0,0 / min-luma=0 / max-luma=1023 / log2-max-poc-lsb=8 / vui-timing-info / vui-hrd-info / slices=1 / no-opt-qp-pps / no-opt-ref-list-length-pps / no-multi-pass-opt-rps / scenecut-bias=0.05 / no-opt-cu-delta-qp / no-aq-motion / hdr / hdr-opt / no-dhdr10-opt / no-idr-recovery-sei / analysis-reuse-level=5 / scale-factor=0 / refine-intra=0 / refine-inter=0 / refine-mv=1 / refine-ctu-distortion=0 / no-limit-sao / ctu-info=0 / no-lowpass-dct / refine-analysis-type=0 / copy-pic=1 / max-ausize-factor=1.0 / no-dynamic-refine / no-single-sei / no-hevc-aq / no-svt / no-field / qp-adaptation-range=1.00
    Default                     : Yes
    Forced                      : No
    Color range                 : Limited
    Color primaries             : BT.2020
    Transfer characteristics    : SMPTE ST 2084
    Matrix coefficients         : BT.2020 non-constant
    
    Audio #1
    ID                          : 2
    Format                      : DTS
    Format/Info                 : Digital Theater Systems
    Format profile              : MA / Core
    Mode                        : 16
    Format settings, Endianness : Big
    Codec ID                    : A_DTS
    Duration                    : 1 h 43 min
    Bit rate mode               : Variable / Constant
    Bit rate                    : 4 004 kb/s / 1 509 kb/s
    Channel(s)                  : 6 channels
    Channel positions           : Front: L C R, Side: L R, LFE
    Sampling rate               : 48.0 kHz
    Frame rate                  : 93.750 FPS (512 spf)
    Bit depth                   : 24 bits
    Compression mode            : Lossless / Lossy
    Stream size                 : 2.90 GiB (19%)
    Language                    : English
    Default                     : Yes
    Forced                      : No
    
    Audio #2
    ID                          : 3
    Format                      : AC-3
    Format/Info                 : Audio Coding 3
    Format settings, Endianness : Big
    Codec ID                    : A_AC3
    Duration                    : 1 h 43 min
    Bit rate mode               : Constant
    Bit rate                    : 192 kb/s
    Channel(s)                  : 2 channels
    Channel positions           : Front: L R
    Sampling rate               : 48.0 kHz
    Frame rate                  : 31.250 FPS (1536 spf)
    Bit depth                   : 16 bits
    Compression mode            : Lossy
    Stream size                 : 142 MiB (1%)
    Title                       : Commentary with Director Robert Zemeckis, Producer Frank Marshall and other crew
    Language                    : English
    Service kind                : Complete Main
    Default                     : No
    Forced                      : No
    
    Text #1
    ID                          : 4
    Format                      : PGS
    Muxing mode                 : zlib
    Codec ID                    : S_HDMV/PGS
    Codec ID/Info               : Picture based subtitle format used on BDs/HD-DVDs
    Duration                    : 1 h 41 min
    Bit rate                    : 43.6 kb/s
    Count of elements           : 2970
    Stream size                 : 31.6 MiB (0%)
    Language                    : English
    Default                     : No
    Forced                      : No
    
    Text #2
    ID                          : 5
    Format                      : PGS
    Muxing mode                 : zlib
    Codec ID                    : S_HDMV/PGS
    Codec ID/Info               : Picture based subtitle format used on BDs/HD-DVDs
    Duration                    : 1 h 36 min
    Bit rate                    : 29.4 kb/s
    Count of elements           : 2094
    Stream size                 : 20.3 MiB (0%)
    Language                    : French
    Default                     : No
    Forced                      : No
    
    Text #3
    ID                          : 6
    Format                      : PGS
    Muxing mode                 : zlib
    Codec ID                    : S_HDMV/PGS
    Codec ID/Info               : Picture based subtitle format used on BDs/HD-DVDs
    Duration                    : 1 h 36 min
    Bit rate                    : 34.8 kb/s
    Count of elements           : 2236
    Stream size                 : 24.0 MiB (0%)
    Language                    : Spanish
    Default                     : No
    Forced                      : No
    
    Text #4
    ID                          : 7
    Format                      : PGS
    Muxing mode                 : zlib
    Codec ID                    : S_HDMV/PGS
    Codec ID/Info               : Picture based subtitle format used on BDs/HD-DVDs
    Duration                    : 1 h 36 min
    Bit rate                    : 32.3 kb/s
    Count of elements           : 2046
    Stream size                 : 22.3 MiB (0%)
    Language                    : Russian
    Default                     : No
    Forced                      : No
    
    Text #5
    ID                          : 8
    Format                      : PGS
    Muxing mode                 : zlib
    Codec ID                    : S_HDMV/PGS
    Codec ID/Info               : Picture based subtitle format used on BDs/HD-DVDs
    Duration                    : 1 h 36 min
    Bit rate                    : 33.0 kb/s
    Count of elements           : 2274
    Stream size                 : 22.8 MiB (0%)
    Language                    : Portuguese
    Default                     : No
    Forced                      : No
    
    Text #6
    ID                          : 9
    Format                      : PGS
    Muxing mode                 : zlib
    Codec ID                    : S_HDMV/PGS
    Codec ID/Info               : Picture based subtitle format used on BDs/HD-DVDs
    Duration                    : 1 h 43 min
    Bit rate                    : 90.4 kb/s
    Count of elements           : 4568
    Stream size                 : 67.0 MiB (0%)
    Language                    : English
    Default                     : No
    Forced                      : No
    
    Text #7
    ID                          : 10
    Format                      : PGS
    Muxing mode                 : zlib
    Codec ID                    : S_HDMV/PGS
    Codec ID/Info               : Picture based subtitle format used on BDs/HD-DVDs
    Duration                    : 1 h 43 min
    Bit rate                    : 65.2 kb/s
    Count of elements           : 4174
    Stream size                 : 48.3 MiB (0%)
    Language                    : French
    Default                     : No
    Forced                      : No
    
    Text #8
    ID                          : 11
    Format                      : PGS
    Muxing mode                 : zlib
    Codec ID                    : S_HDMV/PGS
    Codec ID/Info               : Picture based subtitle format used on BDs/HD-DVDs
    Duration                    : 1 h 43 min
    Bit rate                    : 68.0 kb/s
    Count of elements           : 4174
    Stream size                 : 50.4 MiB (0%)
    Language                    : Spanish
    Default                     : No
    Forced                      : No
    
    Text #9
    ID                          : 12
    Format                      : PGS
    Muxing mode                 : zlib
    Codec ID                    : S_HDMV/PGS
    Codec ID/Info               : Picture based subtitle format used on BDs/HD-DVDs
    Duration                    : 1 h 43 min
    Bit rate                    : 80.8 kb/s
    Count of elements           : 4176
    Stream size                 : 59.9 MiB (0%)
    Language                    : Russian
    Default                     : No
    Forced                      : No
    
    Text #10
    ID                          : 13
    Format                      : PGS
    Muxing mode                 : zlib
    Codec ID                    : S_HDMV/PGS
    Codec ID/Info               : Picture based subtitle format used on BDs/HD-DVDs
    Duration                    : 1 h 43 min
    Bit rate                    : 76.1 kb/s
    Count of elements           : 4176
    Stream size                 : 56.4 MiB (0%)
    Language                    : Portuguese
    Default                     : No
    Forced                      : No
    
    Text #11
    ID                          : 14
    Format                      : PGS
    Muxing mode                 : zlib
    Codec ID                    : S_HDMV/PGS
    Codec ID/Info               : Picture based subtitle format used on BDs/HD-DVDs
    Duration                    : 1 h 32 min
    Bit rate                    : 734 b/s
    Count of elements           : 46
    Stream size                 : 498 KiB (0%)
    Language                    : French
    Default                     : No
    Forced                      : No
    
    Text #12
    ID                          : 15
    Format                      : PGS
    Muxing mode                 : zlib
    Codec ID                    : S_HDMV/PGS
    Codec ID/Info               : Picture based subtitle format used on BDs/HD-DVDs
    Duration                    : 1 h 31 min
    Bit rate                    : 372 b/s
    Count of elements           : 36
    Stream size                 : 250 KiB (0%)
    Language                    : Russian
    Default                     : No
    Forced                      : No
    
    Text #13
    ID                          : 16
    Format                      : PGS
    Muxing mode                 : zlib
    Codec ID                    : S_HDMV/PGS
    Codec ID/Info               : Picture based subtitle format used on BDs/HD-DVDs
    Duration                    : 1 h 43 min
    Bit rate                    : 91.1 kb/s
    Count of elements           : 782
    Stream size                 : 67.3 MiB (0%)
    Language                    : English
    Default                     : No
    Forced                      : No
    
    Text #14
    ID                          : 17
    Format                      : PGS
    Muxing mode                 : zlib
    Codec ID                    : S_HDMV/PGS
    Codec ID/Info               : Picture based subtitle format used on BDs/HD-DVDs
    Duration                    : 1 h 43 min
    Bit rate                    : 40.7 kb/s
    Count of elements           : 782
    Stream size                 : 30.1 MiB (0%)
    Language                    : French
    Default                     : No
    Forced                      : No
    
    Text #15
    ID                          : 18
    Format                      : PGS
    Muxing mode                 : zlib
    Codec ID                    : S_HDMV/PGS
    Codec ID/Info               : Picture based subtitle format used on BDs/HD-DVDs
    Duration                    : 1 h 43 min
    Bit rate                    : 41.6 kb/s
    Count of elements           : 782
    Stream size                 : 30.8 MiB (0%)
    Language                    : Spanish
    Default                     : No
    Forced                      : No
    
    Text #16
    ID                          : 19
    Format                      : PGS
    Muxing mode                 : zlib
    Codec ID                    : S_HDMV/PGS
    Codec ID/Info               : Picture based subtitle format used on BDs/HD-DVDs
    Duration                    : 1 h 43 min
    Bit rate                    : 40.3 kb/s
    Count of elements           : 782
    Stream size                 : 29.8 MiB (0%)
    Language                    : Russian
    Default                     : No
    Forced                      : No
    
    Text #17
    ID                          : 20
    Format                      : PGS
    Muxing mode                 : zlib
    Codec ID                    : S_HDMV/PGS
    Codec ID/Info               : Picture based subtitle format used on BDs/HD-DVDs
    Duration                    : 1 h 43 min
    Bit rate                    : 39.2 kb/s
    Count of elements           : 782
    Stream size                 : 29.0 MiB (0%)
    Language                    : Portuguese
    Default                     : No
    Forced                      : No
    
    Menu
    00:00:00.000                : en:Chapter 01
    00:05:33.458                : en:Chapter 02
    00:09:44.625                : en:Chapter 03
    00:14:06.136                : en:Chapter 04
    00:20:40.614                : en:Chapter 05
    00:28:53.022                : en:Chapter 06
    00:34:07.128                : en:Chapter 07
    00:41:12.094                : en:Chapter 08
    00:46:27.993                : en:Chapter 09
    00:49:36.890                : en:Chapter 10
    00:57:14.013                : en:Chapter 11
    01:03:33.434                : en:Chapter 12
    01:07:24.373                : en:Chapter 13
    01:12:08.782                : en:Chapter 14
    01:16:45.809                : en:Chapter 15
    01:22:05.921                : en:Chapter 16
    01:28:49.032                : en:Chapter 17
    01:34:23.199                : en:Chapter 18
    Download:
     
  2. Loading...

    Similar Threads - Framed Roger Rabbit
    1. DDLbase
      Replies:
      0
      Views:
      1,436

Share This Page