Google Drive Wonder.Woman.1984.2020.1080p.WEB-DL.H264.DD5.1-EVO

Discussion in 'Web-DL / Webrip | 1080p' started by DDLbase, Dec 25, 2020.

  1. DDLbase

    DDLbase Administrator Staff Member

    [​IMG]

    Rating: 6.8/10 based on 9,832 user ratings

    Genres: Action, Adventure, Fantasy

    Rewind to the 1980s as Wonder Woman’s next big screen adventure finds her facing two all-new foes: Max Lord and The Cheetah.

    [​IMG]
    Code:
    General
    Unique ID                   : 238201320019779279416399767830651155501 (0xB333E7CEF864CC71FE8C65771877342D)
    Complete name               : Wonder Woman 1984.2020.1080p.WEB-DL.H264.DD5.1-EVO.mkv
    Format                      : Matroska
    Format version              : Version 4
    File size                   : 5.89 GiB
    Duration                    : 2 h 31 min
    Overall bit rate            : 5 580 kb/s
    Encoded date                : UTC 2020-12-25 16:29:38
    Writing application         : mkvmerge v49.0.0 ('Sick Of Losing Soulmates') 64-bit
    Writing library             : libebml v1.4.0 + libmatroska v1.6.1
    Cover                       : Yes
    Attachments                 : cover.jpg
    
    Video
    ID                          : 2
    Format                      : AVC
    Format/Info                 : Advanced Video Codec
    Format profile              : [email protected]
    Format settings             : CABAC / 4 Ref Frames
    Format settings, CABAC      : Yes
    Format settings, Reference  : 4 frames
    Codec ID                    : V_MPEG4/ISO/AVC
    Duration                    : 2 h 31 min
    Bit rate                    : 5 194 kb/s
    Width                       : 1 920 pixels
    Height                      : 1 012 pixels
    Display aspect ratio        : 1.897
    Frame rate mode             : Constant
    Frame rate                  : 23.976 (24000/1001) FPS
    Color space                 : YUV
    Chroma subsampling          : 4:2:0
    Bit depth                   : 8 bits
    Scan type                   : Progressive
    Bits/(Pixel*Frame)          : 0.111
    Stream size                 : 5.48 GiB (93%)
    Language                    : English
    Default                     : Yes
    Forced                      : No
    Color range                 : Limited
    Color primaries             : BT.709
    Transfer characteristics    : BT.709
    Matrix coefficients         : BT.709
    
    Audio
    ID                          : 1
    Format                      : AC-3
    Format/Info                 : Audio Coding 3
    Commercial name             : Dolby Digital
    Codec ID                    : A_AC3
    Duration                    : 2 h 31 min
    Bit rate mode               : Constant
    Bit rate                    : 384 kb/s
    Channel(s)                  : 6 channels
    Channel layout              : L R C LFE Ls Rs
    Sampling rate               : 48.0 kHz
    Frame rate                  : 31.250 FPS (1536 SPF)
    Compression mode            : Lossy
    Delay relative to video     : -42 ms
    Stream size                 : 415 MiB (7%)
    Language                    : English
    Service kind                : Complete Main
    Default                     : Yes
    Forced                      : No
    
    Menu
    00:00:00.000                : en:Chapter 1
    00:03:15.320                : en:Chapter 2
    00:11:16.634                : en:Chapter 3
    00:19:51.231                : en:Chapter 4
    00:29:09.371                : en:Chapter 5
    00:35:23.077                : en:Chapter 6
    00:41:05.127                : en:Chapter 7
    00:50:22.266                : en:Chapter 8
    00:57:06.795                : en:Chapter 9
    01:06:52.338                : en:Chapter 10
    01:16:47.141                : en:Chapter 11
    01:19:59.290                : en:Chapter 12
    01:28:56.534                : en:Chapter 13
    01:37:29.295                : en:Chapter 14
    01:46:58.279                : en:Chapter 15
    01:54:52.753                : en:Chapter 16
    02:00:29.255                : en:Chapter 17
    02:05:27.386                : en:Chapter 18
    02:11:19.987                : en:Chapter 19
    02:20:20.152                : en:Chapter 20
    02:25:33.756                : en:Chapter 21
    Download - Mirror 1:
    Download - Mirror 2:
    Download - Mirror 3:
     
  2. Loading...


Share This Page