Google Drive X-Men - Days of Future Past 2014 1080p Blu-ray Remux AVC DTS-HD MA 7.1 - KRaLiMaRKo

Discussion in 'BD REMUX | 1080p' started by DDLbase, Apr 21, 2020.

  1. DDLbase

    DDLbase Administrator Staff Member

    [​IMG]

    X-Men: Days of Future Past (2014)

    [​IMG] 8.0/10 [​IMG]640,302

    Plot

    In the future, the mutants and the humans that help them are slaughtered by powerful robots named Sentinels. Professor Xavier, Wolverine, Magneto, Storm, Kitty Pryde and her friends meet at a monastery in China and Xavier explains that the invincible Sentinels were created using the DNA of Mystique that was captured in 1973 when she tried to assassinate their creator Dr. Bolivar Trask. Xavier tells that their only chance is return to 1973 using Pryde's ability to join Charles Xavier and Erik Lehnsherr to convince Mystique to give up of her intention. . However, only Wolverine can withstand the damages of the time travel. Will he succeed in stopping Mystique and the Sentinel Program and save the mutants and their human friends from annihilation?

    Movie Info
    • Rating: PG-13
    • Genre: Action, Adventure, Sci-Fi, Thriller
    • Directed By: Bryan Singer
    • Written By: Simon Kinberg (screenplay by), Jane Goldman (story by), Simon Kinberg (story by), Matthew Vaughn (story by)
    • Starring: Hugh Jackman, James McAvoy, Michael Fassbender, Jennifer Lawrence
    • Release Date: 23 May 2014
    • Runtime: 132 min
    • Production: 20th Century Fox
    [​IMG]
    Code:
    General
    Unique ID                   : 194687947033434080502473447949339544560 (0x927788E21E5F68EB9B747EBC321D4BF0)
    Complete name               : X-Men - Days of Future Past 2014 1080p Blu-ray Remux AVC DTS-HD MA 7.1 - KRaLiMaRKo.mkv
    Format                      : Matroska
    Format version              : Version 4
    File size                   : 33.7 GiB
    Duration                    : 2 h 11 min
    Overall bit rate mode       : Variable
    Overall bit rate            : 36.6 Mb/s
    Movie name                  : X-Men - Days of Future Past 2014 1080p Blu-ray Remux AVC DTS-HD MA 7.1 - KRaLiMaRKo
    Encoded date                : UTC 2014-11-17 10:15:51
    Writing application         : mkvmerge v7.2.0 ('On Every Street') 64bit built on Sep 13 2014 15:52:10
    Writing library             : libebml v1.3.0 + libmatroska v1.4.1
    
    Video
    ID                          : 1
    Format                      : AVC
    Format/Info                 : Advanced Video Codec
    Format profile              : [email protected]
    Format settings             : CABAC / 4 Ref Frames
    Format settings, CABAC      : Yes
    Format settings, Reference  : 4 frames
    Codec ID                    : V_MPEG4/ISO/AVC
    Duration                    : 2 h 11 min
    Bit rate mode               : Variable
    Bit rate                    : 30.2 Mb/s
    Maximum bit rate            : 32.7 Mb/s
    Width                       : 1 920 pixels
    Height                      : 1 080 pixels
    Display aspect ratio        : 16:9
    Frame rate mode             : Constant
    Frame rate                  : 23.976 (24000/1001) FPS
    Color space                 : YUV
    Chroma subsampling          : 4:2:0
    Bit depth                   : 8 bits
    Scan type                   : Progressive
    Bits/(Pixel*Frame)          : 0.608
    Stream size                 : 27.8 GiB (82%)
    Language                    : English
    Default                     : Yes
    Forced                      : No
    
    Audio
    ID                          : 2
    Format                      : DTS ES XLL
    Format/Info                 : Digital Theater Systems
    Commercial name             : DTS-HD Master Audio
    Codec ID                    : A_DTS
    Duration                    : 2 h 11 min
    Bit rate mode               : Variable
    Bit rate                    : 5 490 kb/s
    Channel(s)                  : 6 channels
    Channel(s)_Original         : 8 channels
    ChannelLayout_Original      : C L R Ls Rs LFE Lsr Rsr
    Sampling rate               : 48.0 kHz
    Frame rate                  : 93.750 FPS (512 SPF)
    Bit depth                   : 24 bits
    Compression mode            : Lossless
    Stream size                 : 5.05 GiB (15%)
    Language                    : English
    Default                     : Yes
    Forced                      : No
    
    Text #1
    ID                          : 3
    Format                      : PGS
    Codec ID                    : S_HDMV/PGS
    Codec ID/Info               : Picture based subtitle format used on BDs/HD-DVDs
    Duration                    : 1 h 31 min
    Bit rate                    : 731 b/s
    Count of elements           : 64
    Stream size                 : 488 KiB (0%)
    Title                       : forced only
    Language                    : English
    Default                     : Yes
    Forced                      : No
    
    Text #2
    ID                          : 4
    Format                      : PGS
    Codec ID                    : S_HDMV/PGS
    Codec ID/Info               : Picture based subtitle format used on BDs/HD-DVDs
    Duration                    : 2 h 1 min
    Bit rate                    : 27.6 kb/s
    Count of elements           : 2588
    Stream size                 : 24.0 MiB (0%)
    Language                    : English
    Default                     : No
    Forced                      : No
    
    Text #3
    ID                          : 5
    Format                      : PGS
    Codec ID                    : S_HDMV/PGS
    Codec ID/Info               : Picture based subtitle format used on BDs/HD-DVDs
    Duration                    : 2 h 9 min
    Bit rate                    : 33.2 kb/s
    Count of elements           : 3429
    Stream size                 : 30.9 MiB (0%)
    Title                       : SDH
    Language                    : English
    Default                     : No
    Forced                      : No
    
    Text #4
    ID                          : 6
    Format                      : PGS
    Codec ID                    : S_HDMV/PGS
    Codec ID/Info               : Picture based subtitle format used on BDs/HD-DVDs
    Duration                    : 2 h 10 min
    Bit rate                    : 24.4 kb/s
    Count of elements           : 2630
    Stream size                 : 22.8 MiB (0%)
    Language                    : Bulgarian
    Default                     : No
    Forced                      : No
    
    Text #5
    ID                          : 7
    Format                      : PGS
    Codec ID                    : S_HDMV/PGS
    Codec ID/Info               : Picture based subtitle format used on BDs/HD-DVDs
    Duration                    : 2 h 10 min
    Bit rate                    : 17.8 kb/s
    Count of elements           : 2650
    Stream size                 : 16.6 MiB (0%)
    Title                       : Chinese Cantonese
    Language                    : Chinese
    Default                     : No
    Forced                      : No
    
    Text #6
    ID                          : 8
    Format                      : PGS
    Codec ID                    : S_HDMV/PGS
    Codec ID/Info               : Picture based subtitle format used on BDs/HD-DVDs
    Duration                    : 2 h 10 min
    Bit rate                    : 19.6 kb/s
    Count of elements           : 2628
    Stream size                 : 18.3 MiB (0%)
    Title                       : Chinese Mandarin Traditional
    Language                    : Chinese
    Default                     : No
    Forced                      : No
    
    Text #7
    ID                          : 9
    Format                      : PGS
    Codec ID                    : S_HDMV/PGS
    Codec ID/Info               : Picture based subtitle format used on BDs/HD-DVDs
    Duration                    : 2 h 10 min
    Bit rate                    : 25.0 kb/s
    Count of elements           : 2612
    Stream size                 : 23.3 MiB (0%)
    Language                    : Croatian
    Default                     : No
    Forced                      : No
    
    Text #8
    ID                          : 10
    Format                      : PGS
    Codec ID                    : S_HDMV/PGS
    Codec ID/Info               : Picture based subtitle format used on BDs/HD-DVDs
    Duration                    : 2 h 10 min
    Bit rate                    : 22.2 kb/s
    Count of elements           : 2602
    Stream size                 : 20.7 MiB (0%)
    Language                    : Czech
    Default                     : No
    Forced                      : No
    
    Text #9
    ID                          : 11
    Format                      : PGS
    Codec ID                    : S_HDMV/PGS
    Codec ID/Info               : Picture based subtitle format used on BDs/HD-DVDs
    Duration                    : 2 h 10 min
    Bit rate                    : 24.7 kb/s
    Count of elements           : 2416
    Stream size                 : 23.1 MiB (0%)
    Language                    : Danish
    Default                     : No
    Forced                      : No
    
    Text #10
    ID                          : 12
    Format                      : PGS
    Codec ID                    : S_HDMV/PGS
    Codec ID/Info               : Picture based subtitle format used on BDs/HD-DVDs
    Duration                    : 2 h 10 min
    Bit rate                    : 22.6 kb/s
    Count of elements           : 2242
    Stream size                 : 21.1 MiB (0%)
    Language                    : Dutch
    Default                     : No
    Forced                      : No
    
    Text #11
    ID                          : 13
    Format                      : PGS
    Codec ID                    : S_HDMV/PGS
    Codec ID/Info               : Picture based subtitle format used on BDs/HD-DVDs
    Duration                    : 2 h 10 min
    Bit rate                    : 24.7 kb/s
    Count of elements           : 2584
    Stream size                 : 23.1 MiB (0%)
    Language                    : Estonian
    Default                     : No
    Forced                      : No
    
    Text #12
    ID                          : 14
    Format                      : PGS
    Codec ID                    : S_HDMV/PGS
    Codec ID/Info               : Picture based subtitle format used on BDs/HD-DVDs
    Duration                    : 2 h 10 min
    Bit rate                    : 21.9 kb/s
    Count of elements           : 2310
    Stream size                 : 20.4 MiB (0%)
    Language                    : Finnish
    Default                     : No
    Forced                      : No
    
    Text #13
    ID                          : 15
    Format                      : PGS
    Codec ID                    : S_HDMV/PGS
    Codec ID/Info               : Picture based subtitle format used on BDs/HD-DVDs
    Duration                    : 2 h 10 min
    Bit rate                    : 21.7 kb/s
    Count of elements           : 2448
    Stream size                 : 20.2 MiB (0%)
    Language                    : French
    Default                     : No
    Forced                      : No
    
    Text #14
    ID                          : 16
    Format                      : PGS
    Codec ID                    : S_HDMV/PGS
    Codec ID/Info               : Picture based subtitle format used on BDs/HD-DVDs
    Duration                    : 2 h 10 min
    Bit rate                    : 26.4 kb/s
    Count of elements           : 2616
    Stream size                 : 24.6 MiB (0%)
    Language                    : German
    Default                     : No
    Forced                      : No
    
    Text #15
    ID                          : 17
    Format                      : PGS
    Codec ID                    : S_HDMV/PGS
    Codec ID/Info               : Picture based subtitle format used on BDs/HD-DVDs
    Duration                    : 2 h 10 min
    Bit rate                    : 27.2 kb/s
    Count of elements           : 2288
    Stream size                 : 25.4 MiB (0%)
    Language                    : Greek
    Default                     : No
    Forced                      : No
    
    Text #16
    ID                          : 18
    Format                      : PGS
    Codec ID                    : S_HDMV/PGS
    Codec ID/Info               : Picture based subtitle format used on BDs/HD-DVDs
    Duration                    : 2 h 10 min
    Bit rate                    : 18.2 kb/s
    Count of elements           : 2628
    Stream size                 : 17.0 MiB (0%)
    Language                    : Hebrew
    Default                     : No
    Forced                      : No
    
    Text #17
    ID                          : 19
    Format                      : PGS
    Codec ID                    : S_HDMV/PGS
    Codec ID/Info               : Picture based subtitle format used on BDs/HD-DVDs
    Duration                    : 2 h 10 min
    Bit rate                    : 23.0 kb/s
    Count of elements           : 2242
    Stream size                 : 21.4 MiB (0%)
    Language                    : Hungarian
    Default                     : No
    Forced                      : No
    
    Text #18
    ID                          : 20
    Format                      : PGS
    Codec ID                    : S_HDMV/PGS
    Codec ID/Info               : Picture based subtitle format used on BDs/HD-DVDs
    Duration                    : 2 h 10 min
    Bit rate                    : 25.1 kb/s
    Count of elements           : 2506
    Stream size                 : 23.4 MiB (0%)
    Language                    : Icelandic
    Default                     : No
    Forced                      : No
    
    Text #19
    ID                          : 21
    Format                      : PGS
    Codec ID                    : S_HDMV/PGS
    Codec ID/Info               : Picture based subtitle format used on BDs/HD-DVDs
    Duration                    : 2 h 10 min
    Bit rate                    : 27.6 kb/s
    Count of elements           : 2610
    Stream size                 : 25.7 MiB (0%)
    Language                    : Indonesian
    Default                     : No
    Forced                      : No
    
    Text #20
    ID                          : 22
    Format                      : PGS
    Codec ID                    : S_HDMV/PGS
    Codec ID/Info               : Picture based subtitle format used on BDs/HD-DVDs
    Duration                    : 2 h 10 min
    Bit rate                    : 24.9 kb/s
    Count of elements           : 2616
    Stream size                 : 23.2 MiB (0%)
    Language                    : Italian
    Default                     : No
    Forced                      : No
    
    Text #21
    ID                          : 23
    Format                      : PGS
    Codec ID                    : S_HDMV/PGS
    Codec ID/Info               : Picture based subtitle format used on BDs/HD-DVDs
    Duration                    : 2 h 10 min
    Bit rate                    : 17.2 kb/s
    Count of elements           : 2563
    Stream size                 : 16.1 MiB (0%)
    Language                    : Japanese
    Default                     : No
    Forced                      : No
    
    Text #22
    ID                          : 24
    Format                      : PGS
    Codec ID                    : S_HDMV/PGS
    Codec ID/Info               : Picture based subtitle format used on BDs/HD-DVDs
    Duration                    : 2 h 10 min
    Bit rate                    : 17.2 kb/s
    Count of elements           : 2670
    Stream size                 : 16.1 MiB (0%)
    Language                    : Korean
    Default                     : No
    Forced                      : No
    
    Text #23
    ID                          : 25
    Format                      : PGS
    Codec ID                    : S_HDMV/PGS
    Codec ID/Info               : Picture based subtitle format used on BDs/HD-DVDs
    Duration                    : 2 h 10 min
    Bit rate                    : 24.4 kb/s
    Count of elements           : 2616
    Stream size                 : 22.8 MiB (0%)
    Language                    : Latvian
    Default                     : No
    Forced                      : No
    
    Text #24
    ID                          : 26
    Format                      : PGS
    Codec ID                    : S_HDMV/PGS
    Codec ID/Info               : Picture based subtitle format used on BDs/HD-DVDs
    Duration                    : 2 h 10 min
    Bit rate                    : 24.4 kb/s
    Count of elements           : 2610
    Stream size                 : 22.8 MiB (0%)
    Language                    : Lithuanian
    Default                     : No
    Forced                      : No
    
    Text #25
    ID                          : 27
    Format                      : PGS
    Codec ID                    : S_HDMV/PGS
    Codec ID/Info               : Picture based subtitle format used on BDs/HD-DVDs
    Duration                    : 2 h 10 min
    Bit rate                    : 30.5 kb/s
    Count of elements           : 2624
    Stream size                 : 28.5 MiB (0%)
    Language                    : Malay
    Default                     : No
    Forced                      : No
    
    Text #26
    ID                          : 28
    Format                      : PGS
    Codec ID                    : S_HDMV/PGS
    Codec ID/Info               : Picture based subtitle format used on BDs/HD-DVDs
    Duration                    : 2 h 10 min
    Bit rate                    : 24.4 kb/s
    Count of elements           : 2604
    Stream size                 : 22.8 MiB (0%)
    Language                    : Norwegian
    Default                     : No
    Forced                      : No
    
    Text #27
    ID                          : 29
    Format                      : PGS
    Codec ID                    : S_HDMV/PGS
    Codec ID/Info               : Picture based subtitle format used on BDs/HD-DVDs
    Duration                    : 2 h 10 min
    Bit rate                    : 22.9 kb/s
    Count of elements           : 2460
    Stream size                 : 21.4 MiB (0%)
    Language                    : Polish
    Default                     : No
    Forced                      : No
    
    Text #28
    ID                          : 30
    Format                      : PGS
    Codec ID                    : S_HDMV/PGS
    Codec ID/Info               : Picture based subtitle format used on BDs/HD-DVDs
    Duration                    : 2 h 10 min
    Bit rate                    : 22.0 kb/s
    Count of elements           : 2600
    Stream size                 : 20.6 MiB (0%)
    Title                       : Brazilian Portuguese
    Language                    : Portuguese
    Default                     : No
    Forced                      : No
    
    Text #29
    ID                          : 31
    Format                      : PGS
    Codec ID                    : S_HDMV/PGS
    Codec ID/Info               : Picture based subtitle format used on BDs/HD-DVDs
    Duration                    : 2 h 10 min
    Bit rate                    : 26.4 kb/s
    Count of elements           : 2610
    Stream size                 : 24.6 MiB (0%)
    Title                       : Iberian Portuguese
    Language                    : Portuguese
    Default                     : No
    Forced                      : No
    
    Text #30
    ID                          : 32
    Format                      : PGS
    Codec ID                    : S_HDMV/PGS
    Codec ID/Info               : Picture based subtitle format used on BDs/HD-DVDs
    Duration                    : 2 h 10 min
    Bit rate                    : 23.4 kb/s
    Count of elements           : 2598
    Stream size                 : 21.8 MiB (0%)
    Language                    : Romanian
    Default                     : No
    Forced                      : No
    
    Text #31
    ID                          : 33
    Format                      : PGS
    Codec ID                    : S_HDMV/PGS
    Codec ID/Info               : Picture based subtitle format used on BDs/HD-DVDs
    Duration                    : 2 h 10 min
    Bit rate                    : 25.8 kb/s
    Count of elements           : 2628
    Stream size                 : 24.1 MiB (0%)
    Language                    : Russian
    Default                     : No
    Forced                      : No
    
    Text #32
    ID                          : 34
    Format                      : PGS
    Codec ID                    : S_HDMV/PGS
    Codec ID/Info               : Picture based subtitle format used on BDs/HD-DVDs
    Duration                    : 2 h 10 min
    Bit rate                    : 25.2 kb/s
    Count of elements           : 2622
    Stream size                 : 23.5 MiB (0%)
    Language                    : Serbian
    Default                     : No
    Forced                      : No
    
    Text #33
    ID                          : 35
    Format                      : PGS
    Codec ID                    : S_HDMV/PGS
    Codec ID/Info               : Picture based subtitle format used on BDs/HD-DVDs
    Duration                    : 2 h 10 min
    Bit rate                    : 22.1 kb/s
    Count of elements           : 2608
    Stream size                 : 20.6 MiB (0%)
    Language                    : Slovak
    Default                     : No
    Forced                      : No
    
    Text #34
    ID                          : 36
    Format                      : PGS
    Codec ID                    : S_HDMV/PGS
    Codec ID/Info               : Picture based subtitle format used on BDs/HD-DVDs
    Duration                    : 2 h 10 min
    Bit rate                    : 22.1 kb/s
    Count of elements           : 2300
    Stream size                 : 20.6 MiB (0%)
    Language                    : Slovenian
    Default                     : No
    Forced                      : No
    
    Text #35
    ID                          : 37
    Format                      : PGS
    Codec ID                    : S_HDMV/PGS
    Codec ID/Info               : Picture based subtitle format used on BDs/HD-DVDs
    Duration                    : 2 h 10 min
    Bit rate                    : 22.2 kb/s
    Count of elements           : 2674
    Stream size                 : 20.7 MiB (0%)
    Title                       : Castilian Spanish
    Language                    : Spanish
    Default                     : No
    Forced                      : No
    
    Text #36
    ID                          : 38
    Format                      : PGS
    Codec ID                    : S_HDMV/PGS
    Codec ID/Info               : Picture based subtitle format used on BDs/HD-DVDs
    Duration                    : 2 h 10 min
    Bit rate                    : 25.9 kb/s
    Count of elements           : 2470
    Stream size                 : 24.1 MiB (0%)
    Title                       : Latin American Spanish
    Language                    : Spanish
    Default                     : No
    Forced                      : No
    
    Text #37
    ID                          : 39
    Format                      : PGS
    Codec ID                    : S_HDMV/PGS
    Codec ID/Info               : Picture based subtitle format used on BDs/HD-DVDs
    Duration                    : 2 h 10 min
    Bit rate                    : 25.0 kb/s
    Count of elements           : 2608
    Stream size                 : 23.3 MiB (0%)
    Language                    : Swedish
    Default                     : No
    Forced                      : No
    
    Text #38
    ID                          : 40
    Format                      : PGS
    Codec ID                    : S_HDMV/PGS
    Codec ID/Info               : Picture based subtitle format used on BDs/HD-DVDs
    Duration                    : 2 h 10 min
    Bit rate                    : 20.0 kb/s
    Count of elements           : 2630
    Stream size                 : 18.7 MiB (0%)
    Language                    : Thai
    Default                     : No
    Forced                      : No
    
    Text #39
    ID                          : 41
    Format                      : PGS
    Codec ID                    : S_HDMV/PGS
    Codec ID/Info               : Picture based subtitle format used on BDs/HD-DVDs
    Duration                    : 2 h 10 min
    Bit rate                    : 26.1 kb/s
    Count of elements           : 2610
    Stream size                 : 24.4 MiB (0%)
    Language                    : Turkish
    Default                     : No
    Forced                      : No
    
    Text #40
    ID                          : 42
    Format                      : PGS
    Codec ID                    : S_HDMV/PGS
    Codec ID/Info               : Picture based subtitle format used on BDs/HD-DVDs
    Duration                    : 2 h 10 min
    Bit rate                    : 25.6 kb/s
    Count of elements           : 2626
    Stream size                 : 23.9 MiB (0%)
    Language                    : Ukrainian
    Default                     : No
    Forced                      : No
    
    Menu
    00:00:00.000                : en:00:00:00.000
    00:03:33.338                : en:00:03:33.338
    00:08:00.689                : en:00:08:00.689
    00:10:28.628                : en:00:10:28.628
    00:13:58.046                : en:00:13:58.046
    00:17:02.021                : en:00:17:02.021
    00:20:16.090                : en:00:20:16.090
    00:22:11.330                : en:00:22:11.330
    00:26:37.888                : en:00:26:37.888
    00:30:32.038                : en:00:30:32.038
    00:34:29.776                : en:00:34:29.776
    00:36:00.992                : en:00:36:00.992
    00:38:18.087                : en:00:38:18.087
    00:40:37.101                : en:00:40:37.101
    00:45:53.793                : en:00:45:53.793
    00:48:53.848                : en:00:48:53.848
    00:51:58.157                : en:00:51:58.157
    00:54:43.113                : en:00:54:43.113
    00:57:51.426                : en:00:57:51.426
    01:00:48.186                : en:01:00:48.186
    01:03:26.594                : en:01:03:26.594
    01:07:09.567                : en:01:07:09.567
    01:09:43.596                : en:01:09:43.596
    01:13:11.470                : en:01:13:11.470
    01:15:31.861                : en:01:15:31.861
    01:17:27.726                : en:01:17:27.726
    01:19:30.099                : en:01:19:30.099
    01:24:50.711                : en:01:24:50.711
    01:26:58.255                : en:01:26:58.255
    01:31:04.250                : en:01:31:04.250
    01:34:03.680                : en:01:34:03.680
    01:37:33.181                : en:01:37:33.181
    01:41:54.817                : en:01:41:54.817
    01:44:52.995                : en:01:44:52.995
    01:47:19.808                : en:01:47:19.808
    01:51:29.766                : en:01:51:29.766
    01:56:42.746                : en:01:56:42.746
    02:00:12.413                : en:02:00:12.413
    02:02:34.973                : en:02:02:34.973
    02:10:31.907                : en:02:10:31.907
    Download:
     
  2. Loading...


Share This Page