Google Drive Youngblood.1986.1080p.BluRay.x264.DD2.0-FGT

Discussion in 'BDRip | 720p/1080p' started by DDLbase, Oct 4, 2020.

  1. DDLbase

    DDLbase Administrator Staff Member

    [​IMG]

    Rating: 6.2/10 based on 12,142 user ratings

    Genres: Drama, Romance, Sport

    A skilled young hockey prospect hoping to attract the attention of professional scouts is pressured to show that he can fight if challenged during his stay in a Canadian minor hockey town. …

    [​IMG]
    Code:
    General
    Unique ID                   : 110543473490297410855467029594001302153 (0x5329E609057396A747A8F705AE46E289)
    Complete name               : Youngblood.1986.1080p.BluRay.x264.DD2.0-FGT.mkv
    Format                      : Matroska
    Format version              : Version 4
    File size                   : 8.97 GiB
    Duration                    : 1 h 49 min
    Overall bit rate            : 11.7 Mb/s
    Movie name                  : Youngblood.1986.1080p.BluRay.x264.DD2.0-FGT
    Encoded date                : UTC 2018-08-30 20:49:36
    Writing application         : mkvmerge v26.0.0 ('In The Game') 64-bit
    Writing library             : libebml v1.3.6 + libmatroska v1.4.9
    Cover                       : Yes
    Attachments                 : cover_land.jpg / small_cover.jpg / small_cover_land.jpg / cover.jpg
    
    Video
    ID                          : 1
    Format                      : AVC
    Format/Info                 : Advanced Video Codec
    Format profile              : [email protected]
    Format settings             : CABAC / 4 Ref Frames
    Format settings, CABAC      : Yes
    Format settings, Reference  : 4 frames
    Codec ID                    : V_MPEG4/ISO/AVC
    Duration                    : 1 h 49 min
    Bit rate                    : 11.5 Mb/s
    Width                       : 1 920 pixels
    Height                      : 1 040 pixels
    Display aspect ratio        : 1.85:1
    Frame rate mode             : Constant
    Frame rate                  : 23.976 (24000/1001) FPS
    Color space                 : YUV
    Chroma subsampling          : 4:2:0
    Bit depth                   : 8 bits
    Scan type                   : Progressive
    Bits/(Pixel*Frame)          : 0.240
    Stream size                 : 8.82 GiB (98%)
    Title                       : Youngblood.1986.1080p.BluRay.x264.DD2.0-FGT
    Writing library             : x264 core 148 r2795M aaa9aa8
    Encoding settings           : cabac=1 / ref=4 / deblock=1:-2:-2 / analyse=0x3:0x113 / me=umh / subme=9 / psy=1 / psy_rd=1.00:0.15 / mixed_ref=1 / me_range=16 / chroma_me=1 / trellis=2 / 8x8dct=1 / cqm=0 / deadzone=21,11 / fast_pskip=1 / chroma_qp_offset=-3 / threads=24 / lookahead_threads=3 / sliced_threads=0 / nr=0 / decimate=1 / interlaced=0 / bluray_compat=0 / constrained_intra=0 / bframes=3 / b_pyramid=2 / b_adapt=1 / b_bias=0 / direct=3 / weightb=1 / open_gop=0 / weightp=2 / keyint=250 / keyint_min=25 / scenecut=40 / intra_refresh=0 / rc_lookahead=50 / rc=2pass / mbtree=1 / bitrate=11500 / ratetol=1.0 / qcomp=0.60 / qpmin=0 / qpmax=69 / qpstep=4 / cplxblur=20.0 / qblur=0.5 / vbv_maxrate=31250 / vbv_bufsize=31250 / nal_hrd=none / filler=0 / ip_ratio=1.40 / aq=1:1.00
    Language                    : English
    Default                     : Yes
    Forced                      : No
    
    Audio
    ID                          : 2
    Format                      : AC-3
    Format/Info                 : Audio Coding 3
    Commercial name             : Dolby Digital
    Codec ID                    : A_AC3
    Duration                    : 1 h 49 min
    Bit rate mode               : Constant
    Bit rate                    : 192 kb/s
    Channel(s)                  : 2 channels
    Channel layout              : L R
    Sampling rate               : 48.0 kHz
    Frame rate                  : 31.250 FPS (1536 SPF)
    Compression mode            : Lossy
    Stream size                 : 151 MiB (2%)
    Title                       : Youngblood.1986.1080p.BluRay.x264.DD2.0-FGT
    Language                    : English
    Service kind                : Complete Main
    Default                     : Yes
    Forced                      : No
    
    Menu
    00:00:00.000                : en:Chapter 01
    00:10:32.715                : en:Chapter 02
    00:24:09.781                : en:Chapter 03
    00:38:14.292                : en:Chapter 04
    00:54:44.447                : en:Chapter 05
    01:09:16.402                : en:Chapter 06
    01:25:25.036                : en:Chapter 07
    01:43:27.409                : en:Chapter 08
    Download:
     
  2. Loading...


Share This Page