Google Drive Zack.Snyders.Justice.League.2021.2160p.UHD.BluRay.x265-SURCODE

Discussion in 'BDRip | 4K' started by DDLbase, May 27, 2021.

  1. DDLbase

    DDLbase Administrator Staff Member

    [​IMG]

    Rating: 8.1/10 based on 291,461 user ratings

    Genres: Action, Adventure, Fantasy, Sci-Fi

    Determined to ensure Superman’s ultimate sacrifice was not in vain, Bruce Wayne aligns forces with Diana Prince with plans to recruit a team of metahumans to protect the world from an approaching threat of catastrophic proportions.

    [​IMG]
    Code:
    General
    Unique ID                   : 62221832692925487257935882245622682412 (0x2ECF7D3433D21BAB2F545BCB0CB3532C)
    Complete name               : Zack.Snyders.Justice.League.2021.2160p.UHD.BluRay.x265-SURCODE.mkv
    Format                      : Matroska
    Format version              : Version 4
    File size                   : 64.5 GiB
    Duration                    : 4 h 2 min
    Overall bit rate mode       : Variable
    Overall bit rate            : 38.1 Mb/s
    Movie name                  : Zack Snyder's Justice League
    Encoded date                : UTC 2021-05-25 21:41:16
    Writing application         : mkvmerge v31.0.0 ('Dolores In A Shoestand') 64-bit
    Writing library             : libebml v1.3.6 + libmatroska v1.4.9
    
    Video
    ID                          : 1
    Format                      : HEVC
    Format/Info                 : High Efficiency Video Coding
    Format profile              : Main [email protected]@High
    HDR format                  : SMPTE ST 2086, HDR10 compatible
    Codec ID                    : V_MPEGH/ISO/HEVC
    Duration                    : 4 h 2 min
    Bit rate                    : 34.1 Mb/s
    Width                       : 2 880 pixels
    Height                      : 2 160 pixels
    Display aspect ratio        : 4:3
    Frame rate mode             : Constant
    Frame rate                  : 23.976 (24000/1001) FPS
    Color space                 : YUV
    Chroma subsampling          : 4:2:0 (Type 2)
    Bit depth                   : 10 bits
    Bits/(Pixel*Frame)          : 0.229
    Stream size                 : 57.7 GiB (89%)
    Writing library             : x265 3.5+9-bf91444e0:[Windows][MSVC 1900][64 bit] 10bit
    Encoding settings           : cpuid=1111039 / frame-threads=6 / numa-pools=32 / wpp / no-pmode / no-pme / no-psnr / no-ssim / log-level=2 / input-csp=1 / input-res=2880x2160 / interlace=0 / total-frames=348504 / level-idc=51 / high-tier=1 / uhd-bd=0 / ref=4 / no-allow-non-conformance / repeat-headers / annexb / aud / no-eob / no-eos / hrd / info / hash=0 / no-temporal-layers / no-open-gop / min-keyint=23 / keyint=250 / gop-lookahead=0 / bframes=4 / b-adapt=2 / b-pyramid / bframe-bias=0 / rc-lookahead=25 / lookahead-slices=4 / scenecut=40 / hist-scenecut=0 / radl=0 / no-splice / no-intra-refresh / ctu=64 / min-cu-size=8 / rect / no-amp / max-tu-size=32 / tu-inter-depth=1 / tu-intra-depth=1 / limit-tu=0 / rdoq-level=2 / dynamic-rd=0.00 / no-ssim-rd / signhide / no-tskip / nr-intra=0 / nr-inter=0 / no-constrained-intra / no-strong-intra-smoothing / max-merge=3 / limit-refs=3 / limit-modes / me=3 / subme=3 / merange=57 / temporal-mvp / no-frame-dup / no-hme / weightp / no-weightb / no-analyze-src-pics / deblock=-3:-3 / no-sao / no-sao-non-deblock / rd=4 / selective-sao=0 / no-early-skip / rskip / no-fast-intra / no-tskip-fast / no-cu-lossless / no-b-intra / no-splitrd-skip / rdpenalty=0 / psy-rd=2.00 / psy-rdoq=1.00 / no-rd-refine / no-lossless / cbqpoffs=0 / crqpoffs=0 / rc=crf / crf=12.0 / qcomp=0.60 / qpstep=4 / stats-write=0 / stats-read=0 / vbv-maxrate=160000 / vbv-bufsize=160000 / vbv-init=0.9 / min-vbv-fullness=50.0 / max-vbv-fullness=80.0 / crf-max=0.0 / crf-min=0.0 / ipratio=1.40 / pbratio=1.30 / aq-mode=2 / aq-strength=1.00 / cutree / zone-count=0 / no-strict-cbr / qg-size=32 / no-rc-grain / qpmax=69 / qpmin=0 / no-const-vbv / sar=1 / overscan=0 / videoformat=5 / range=0 / colorprim=9 / transfer=16 / colormatrix=9 / chromaloc=1 / chromaloc-top=2 / chromaloc-bottom=2 / display-window=0 / master-display=G(13250,34500)B(7500,3000)R(34000,16000)WP(15635,16450)L(10000000,01) / cll=597,122 / min-luma=0 / max-luma=1023 / log2-max-poc-lsb=8 / vui-timing-info / vui-hrd-info / slices=1 / no-opt-qp-pps / no-opt-ref-list-length-pps / no-multi-pass-opt-rps / scenecut-bias=0.05 / hist-threshold=0.03 / no-opt-cu-delta-qp / no-aq-motion / hdr10 / hdr10-opt / no-dhdr10-opt / no-idr-recovery-sei / analysis-reuse-level=0 / analysis-save-reuse-level=0 / analysis-load-reuse-level=0 / scale-factor=0 / refine-intra=0 / refine-inter=0 / refine-mv=1 / refine-ctu-distortion=0 / no-limit-sao / ctu-info=0 / no-lowpass-dct / refine-analysis-type=0 / copy-pic=1 / max-ausize-factor=1.0 / no-dynamic-refine / no-single-sei / no-hevc-aq / no-svt / no-field / qp-adaptation-range=1.00 / scenecut-aware-qp=0conformance-window-offsets / right=0 / bottom=0 / decoder-max-rate=0 / no-vbv-live-multi-pass
    Default                     : Yes
    Forced                      : No
    Color range                 : Limited
    Color primaries             : BT.2020
    Transfer characteristics    : PQ
    Matrix coefficients         : BT.2020 non-constant
    Mastering display color pri : Display P3
    Mastering display luminance : min: 0.0001 cd/m2, max: 1000 cd/m2
    Maximum Content Light Level : 597 cd/m2
    Maximum Frame-Average Light : 122 cd/m2
    
    Audio #1
    ID                          : 2
    Format                      : MLP FBA 16-ch
    Format/Info                 : Meridian Lossless Packing FBA with 16-channel presentation
    Commercial name             : Dolby TrueHD with Dolby Atmos
    Codec ID                    : A_TRUEHD
    Duration                    : 4 h 2 min
    Bit rate mode               : Variable
    Bit rate                    : 3 157 kb/s
    Maximum bit rate            : 4 773 kb/s
    Channel(s)                  : 8 channels
    Channel layout              : L R C LFE Ls Rs Lb Rb
    Sampling rate               : 48.0 kHz
    Frame rate                  : 1 200.000 FPS (40 SPF)
    Compression mode            : Lossless
    Stream size                 : 5.34 GiB (8%)
    Title                       : Surround 7.1
    Language                    : English
    Default                     : Yes
    Forced                      : No
    Number of dynamic objects   : 11
    Bed channel count           : 1 channel
    Bed channel configuration   : LFE
    
    Audio #2
    ID                          : 3
    Format                      : AC-3
    Format/Info                 : Audio Coding 3
    Commercial name             : Dolby Digital
    Codec ID                    : A_AC3
    Duration                    : 4 h 2 min
    Bit rate mode               : Constant
    Bit rate                    : 448 kb/s
    Channel(s)                  : 6 channels
    Channel layout              : L R C LFE Ls Rs
    Sampling rate               : 48.0 kHz
    Frame rate                  : 31.250 FPS (1536 SPF)
    Compression mode            : Lossy
    Stream size                 : 776 MiB (1%)
    Title                       : Surround 5.1
    Language                    : English
    Service kind                : Complete Main
    Default                     : No
    Forced                      : No
    
    Audio #3
    ID                          : 4
    Format                      : AAC LC
    Format/Info                 : Advanced Audio Codec Low Complexity
    Codec ID                    : A_AAC-2
    Duration                    : 4 h 2 min
    Bit rate                    : 125 kb/s
    Channel(s)                  : 2 channels
    Channel layout              : L R
    Sampling rate               : 48.0 kHz
    Frame rate                  : 46.875 FPS (1024 SPF)
    Compression mode            : Lossy
    Delay relative to video     : 9 ms
    Stream size                 : 217 MiB (0%)
    Title                       : commentary
    Language                    : English
    Default                     : No
    Forced                      : No
    
    Audio #4
    ID                          : 5
    Format                      : AAC LC
    Format/Info                 : Advanced Audio Codec Low Complexity
    Codec ID                    : A_AAC-2
    Duration                    : 4 h 2 min
    Bit rate                    : 122 kb/s
    Channel(s)                  : 2 channels
    Channel layout              : L R
    Sampling rate               : 48.0 kHz
    Frame rate                  : 46.875 FPS (1024 SPF)
    Compression mode            : Lossy
    Delay relative to video     : 9 ms
    Stream size                 : 211 MiB (0%)
    Title                       : commentary
    Language                    : English
    Default                     : No
    Forced                      : No
    
    Text #1
    ID                          : 6
    Format                      : PGS
    Muxing mode                 : zlib
    Codec ID                    : S_HDMV/PGS
    Codec ID/Info               : Picture based subtitle format used on BDs/HD-DVDs
    Duration                    : 3 h 47 min
    Bit rate                    : 13.2 kb/s
    Count of elements           : 3433
    Stream size                 : 21.4 MiB (0%)
    Language                    : Japanese
    Default                     : No
    Forced                      : No
    
    Text #2
    ID                          : 7
    Format                      : PGS
    Muxing mode                 : zlib
    Codec ID                    : S_HDMV/PGS
    Codec ID/Info               : Picture based subtitle format used on BDs/HD-DVDs
    Duration                    : 4 h 0 min
    Bit rate                    : 25.8 kb/s
    Count of elements           : 5558
    Stream size                 : 44.3 MiB (0%)
    Language                    : English
    Default                     : No
    Forced                      : No
    
    Text #3
    ID                          : 8
    Format                      : PGS
    Muxing mode                 : zlib
    Codec ID                    : S_HDMV/PGS
    Codec ID/Info               : Picture based subtitle format used on BDs/HD-DVDs
    Duration                    : 3 h 55 min
    Bit rate                    : 16.3 kb/s
    Count of elements           : 3540
    Stream size                 : 27.5 MiB (0%)
    Language                    : French
    Default                     : No
    Forced                      : No
    
    Text #4
    ID                          : 9
    Format                      : PGS
    Muxing mode                 : zlib
    Codec ID                    : S_HDMV/PGS
    Codec ID/Info               : Picture based subtitle format used on BDs/HD-DVDs
    Duration                    : 3 h 53 min
    Bit rate                    : 27.7 kb/s
    Count of elements           : 4396
    Stream size                 : 46.2 MiB (0%)
    Language                    : German
    Default                     : No
    Forced                      : No
    
    Text #5
    ID                          : 10
    Format                      : PGS
    Muxing mode                 : zlib
    Codec ID                    : S_HDMV/PGS
    Codec ID/Info               : Picture based subtitle format used on BDs/HD-DVDs
    Duration                    : 3 h 52 min
    Bit rate                    : 24.9 kb/s
    Count of elements           : 5282
    Stream size                 : 41.5 MiB (0%)
    Language                    : Italian
    Default                     : No
    Forced                      : No
    
    Text #6
    ID                          : 11
    Format                      : PGS
    Muxing mode                 : zlib
    Codec ID                    : S_HDMV/PGS
    Codec ID/Info               : Picture based subtitle format used on BDs/HD-DVDs
    Duration                    : 3 h 59 min
    Bit rate                    : 18.8 kb/s
    Count of elements           : 3784
    Stream size                 : 32.2 MiB (0%)
    Language                    : Spanish
    Default                     : No
    Forced                      : No
    
    Text #7
    ID                          : 12
    Format                      : PGS
    Muxing mode                 : zlib
    Codec ID                    : S_HDMV/PGS
    Codec ID/Info               : Picture based subtitle format used on BDs/HD-DVDs
    Duration                    : 3 h 47 min
    Bit rate                    : 17.1 kb/s
    Count of elements           : 3070
    Stream size                 : 27.8 MiB (0%)
    Language                    : Dutch
    Default                     : No
    Forced                      : No
    
    Text #8
    ID                          : 13
    Format                      : PGS
    Muxing mode                 : zlib
    Codec ID                    : S_HDMV/PGS
    Codec ID/Info               : Picture based subtitle format used on BDs/HD-DVDs
    Duration                    : 3 h 51 min
    Bit rate                    : 19.2 kb/s
    Count of elements           : 3804
    Stream size                 : 31.7 MiB (0%)
    Language                    : Chinese
    Default                     : No
    Forced                      : No
    
    Text #9
    ID                          : 14
    Format                      : PGS
    Muxing mode                 : zlib
    Codec ID                    : S_HDMV/PGS
    Codec ID/Info               : Picture based subtitle format used on BDs/HD-DVDs
    Duration                    : 3 h 59 min
    Bit rate                    : 20.1 kb/s
    Count of elements           : 3822
    Stream size                 : 34.4 MiB (0%)
    Language                    : Chinese
    Default                     : No
    Forced                      : No
    
    Text #10
    ID                          : 15
    Format                      : PGS
    Muxing mode                 : zlib
    Codec ID                    : S_HDMV/PGS
    Codec ID/Info               : Picture based subtitle format used on BDs/HD-DVDs
    Duration                    : 3 h 51 min
    Bit rate                    : 12.9 kb/s
    Count of elements           : 3790
    Stream size                 : 21.2 MiB (0%)
    Language                    : Korean
    Default                     : No
    Forced                      : No
    
    Text #11
    ID                          : 16
    Format                      : PGS
    Muxing mode                 : zlib
    Codec ID                    : S_HDMV/PGS
    Codec ID/Info               : Picture based subtitle format used on BDs/HD-DVDs
    Duration                    : 3 h 59 min
    Bit rate                    : 17.8 kb/s
    Count of elements           : 2980
    Stream size                 : 30.4 MiB (0%)
    Language                    : Spanish
    Default                     : No
    Forced                      : No
    
    Text #12
    ID                          : 17
    Format                      : PGS
    Muxing mode                 : zlib
    Codec ID                    : S_HDMV/PGS
    Codec ID/Info               : Picture based subtitle format used on BDs/HD-DVDs
    Duration                    : 3 h 59 min
    Bit rate                    : 17.7 kb/s
    Count of elements           : 3762
    Stream size                 : 30.3 MiB (0%)
    Language                    : Czech
    Default                     : No
    Forced                      : No
    
    Text #13
    ID                          : 18
    Format                      : PGS
    Muxing mode                 : zlib
    Codec ID                    : S_HDMV/PGS
    Codec ID/Info               : Picture based subtitle format used on BDs/HD-DVDs
    Duration                    : 3 h 55 min
    Bit rate                    : 16.8 kb/s
    Count of elements           : 2552
    Stream size                 : 28.3 MiB (0%)
    Language                    : Danish
    Default                     : No
    Forced                      : No
    
    Text #14
    ID                          : 19
    Format                      : PGS
    Muxing mode                 : zlib
    Codec ID                    : S_HDMV/PGS
    Codec ID/Info               : Picture based subtitle format used on BDs/HD-DVDs
    Duration                    : 3 h 55 min
    Bit rate                    : 18.3 kb/s
    Count of elements           : 3760
    Stream size                 : 30.8 MiB (0%)
    Language                    : Finnish
    Default                     : No
    Forced                      : No
    
    Text #15
    ID                          : 20
    Format                      : PGS
    Muxing mode                 : zlib
    Codec ID                    : S_HDMV/PGS
    Codec ID/Info               : Picture based subtitle format used on BDs/HD-DVDs
    Duration                    : 3 h 55 min
    Bit rate                    : 19.6 kb/s
    Count of elements           : 3786
    Stream size                 : 33.1 MiB (0%)
    Language                    : Greek
    Default                     : No
    Forced                      : No
    
    Text #16
    ID                          : 21
    Format                      : PGS
    Muxing mode                 : zlib
    Codec ID                    : S_HDMV/PGS
    Codec ID/Info               : Picture based subtitle format used on BDs/HD-DVDs
    Duration                    : 3 h 59 min
    Bit rate                    : 17.4 kb/s
    Count of elements           : 2970
    Stream size                 : 29.8 MiB (0%)
    Language                    : Hungarian
    Default                     : No
    Forced                      : No
    
    Text #17
    ID                          : 22
    Format                      : PGS
    Muxing mode                 : zlib
    Codec ID                    : S_HDMV/PGS
    Codec ID/Info               : Picture based subtitle format used on BDs/HD-DVDs
    Duration                    : 3 h 55 min
    Bit rate                    : 18.1 kb/s
    Count of elements           : 3044
    Stream size                 : 30.4 MiB (0%)
    Language                    : Norwegian
    Default                     : No
    Forced                      : No
    
    Text #18
    ID                          : 23
    Format                      : PGS
    Muxing mode                 : zlib
    Codec ID                    : S_HDMV/PGS
    Codec ID/Info               : Picture based subtitle format used on BDs/HD-DVDs
    Duration                    : 3 h 59 min
    Bit rate                    : 18.8 kb/s
    Count of elements           : 3744
    Stream size                 : 32.2 MiB (0%)
    Language                    : Polish
    Default                     : No
    Forced                      : No
    
    Text #19
    ID                          : 24
    Format                      : PGS
    Muxing mode                 : zlib
    Codec ID                    : S_HDMV/PGS
    Codec ID/Info               : Picture based subtitle format used on BDs/HD-DVDs
    Duration                    : 3 h 55 min
    Bit rate                    : 18.3 kb/s
    Count of elements           : 3652
    Stream size                 : 30.8 MiB (0%)
    Language                    : Romanian
    Default                     : No
    Forced                      : No
    
    Text #20
    ID                          : 25
    Format                      : PGS
    Muxing mode                 : zlib
    Codec ID                    : S_HDMV/PGS
    Codec ID/Info               : Picture based subtitle format used on BDs/HD-DVDs
    Duration                    : 3 h 55 min
    Bit rate                    : 16.5 kb/s
    Count of elements           : 3622
    Stream size                 : 27.8 MiB (0%)
    Language                    : Swedish
    Default                     : No
    Forced                      : No
    
    Text #21
    ID                          : 26
    Format                      : PGS
    Muxing mode                 : zlib
    Codec ID                    : S_HDMV/PGS
    Codec ID/Info               : Picture based subtitle format used on BDs/HD-DVDs
    Duration                    : 3 h 44 min
    Bit rate                    : 261 b/s
    Count of elements           : 40
    Stream size                 : 430 KiB (0%)
    Language                    : French
    Default                     : No
    Forced                      : No
    
    Text #22
    ID                          : 27
    Format                      : PGS
    Muxing mode                 : zlib
    Codec ID                    : S_HDMV/PGS
    Codec ID/Info               : Picture based subtitle format used on BDs/HD-DVDs
    Duration                    : 3 h 44 min
    Bit rate                    : 159 b/s
    Count of elements           : 42
    Stream size                 : 263 KiB (0%)
    Language                    : German
    Default                     : No
    Forced                      : No
    
    Text #23
    ID                          : 28
    Format                      : PGS
    Muxing mode                 : zlib
    Codec ID                    : S_HDMV/PGS
    Codec ID/Info               : Picture based subtitle format used on BDs/HD-DVDs
    Duration                    : 3 h 44 min
    Bit rate                    : 478 b/s
    Count of elements           : 70
    Stream size                 : 788 KiB (0%)
    Language                    : Italian
    Default                     : No
    Forced                      : No
    
    Text #24
    ID                          : 29
    Format                      : PGS
    Muxing mode                 : zlib
    Codec ID                    : S_HDMV/PGS
    Codec ID/Info               : Picture based subtitle format used on BDs/HD-DVDs
    Duration                    : 3 h 44 min
    Bit rate                    : 344 b/s
    Count of elements           : 54
    Stream size                 : 566 KiB (0%)
    Language                    : Spanish
    Default                     : No
    Forced                      : No
    
    Text #25
    ID                          : 30
    Format                      : PGS
    Muxing mode                 : zlib
    Codec ID                    : S_HDMV/PGS
    Codec ID/Info               : Picture based subtitle format used on BDs/HD-DVDs
    Duration                    : 2 h 12 min
    Bit rate                    : 92 b/s
    Count of elements           : 12
    Stream size                 : 89.9 KiB (0%)
    Language                    : Spanish
    Default                     : No
    Forced                      : No
    
    Text #26
    ID                          : 31
    Format                      : PGS
    Muxing mode                 : zlib
    Codec ID                    : S_HDMV/PGS
    Codec ID/Info               : Picture based subtitle format used on BDs/HD-DVDs
    Duration                    : 3 h 44 min
    Bit rate                    : 411 b/s
    Count of elements           : 64
    Stream size                 : 676 KiB (0%)
    Language                    : Czech
    Default                     : No
    Forced                      : No
    
    Text #27
    ID                          : 32
    Format                      : PGS
    Muxing mode                 : zlib
    Codec ID                    : S_HDMV/PGS
    Codec ID/Info               : Picture based subtitle format used on BDs/HD-DVDs
    Duration                    : 3 h 44 min
    Bit rate                    : 496 b/s
    Count of elements           : 78
    Stream size                 : 817 KiB (0%)
    Language                    : Polish
    Default                     : No
    Forced                      : No
    
    Text #28
    ID                          : 33
    Format                      : PGS
    Muxing mode                 : zlib
    Codec ID                    : S_HDMV/PGS
    Codec ID/Info               : Picture based subtitle format used on BDs/HD-DVDs
    Duration                    : 3 h 44 min
    Bit rate                    : 277 b/s
    Count of elements           : 75
    Stream size                 : 456 KiB (0%)
    Language                    : Japanese
    Default                     : No
    Forced                      : No
    
    Menu #1
    00:00:00.000                : en:Chapter 01
    00:08:54.951                : en:Chapter 02
    00:19:56.737                : en:Chapter 03
    00:36:54.670                : en:Chapter 04
    00:41:32.031                : en:Chapter 05
    00:50:18.640                : en:Chapter 06
    00:58:42.644                : en:Chapter 07
    01:08:35.736                : en:Chapter 08
    01:20:27.989                : en:Chapter 09
    01:30:05.274                : en:Chapter 10
    01:40:28.439                : en:Chapter 11
    01:51:24.177                : en:Chapter 12
    01:59:06.931                : en:Chapter 13
    02:07:56.043                : en:Chapter 14
    02:21:58.510                : en:Chapter 15
    02:29:50.106                : en:Chapter 16
    02:37:26.979                : en:Chapter 17
    02:48:36.106                : en:Chapter 18
    02:53:19.681                : en:Chapter 19
    03:09:54.091                : en:Chapter 20
    03:21:28.910                : en:Chapter 21
    03:34:12.214                : en:Chapter 22
    03:40:10.030                : en:Chapter 23
    03:50:47.250                : en:Chapter 24
    
    Menu #2
    02:21:58.528                : en:Chapter 01
    02:29:50.124                : en:Chapter 02
    02:37:26.997                : en:Chapter 03
    02:48:36.124                : en:Chapter 04
    02:53:19.698                : en:Chapter 05
    03:09:54.109                : en:Chapter 06
    03:21:28.928                : en:Chapter 07
    03:34:12.232                : en:Chapter 08
    03:40:10.048                : en:Chapter 09
    03:50:47.268                : en:Chapter 10
    Download - Mirror 1:
    Download - Mirror 2:
     
  2. Loading...


Share This Page